Большой балет. Послесловие [2016, ballet, documentary, DVB-AVC]


 

[Цитировать]

Большой балет. Послесловие
Год выпуска: 2016
Лейбл: т/к Культура
Страна-производитель: Россия
Жанр: ballet, documentary
Продолжительность: 00:40:18
Язык: русский
Режиссер: Андрей Вязигин
Описание: Второй сезон проекта "Большой балет" стал своего рода третейским судьей: в споре двух поколений – отцов и детей, в споре двух балетных традиций – русской и западной. Настоящим яблоком раздора стала хореография XX и XXI веков. Современные постановщики работали с семью парами из разных театров страны. Поняли ли члены жюри замысел хореографов, прочитали ли смысл, заложенный в номерах, убедили ли участники судей своим исполнением? И что на это ответили те, кто больше всего волновался за своих подопечных – педагоги молодых танцовщиков?
За танцем и его оценками на съемочной площадке и эмоциями вне ее наблюдала съемочная группа фильма. За взаимными упреками и недовольствами тех, кто судит и тех, кого судят, авторы фильма постарались увидеть главное – отношение к профессии, к танцу, который становится главным делом жизни. И это – единственная форма существования для разных поколений танцовщиков. Точнее, для лучших из них.
Доп. информация:
Данное видео представляет собой прямую запись вещания канала "Культура" мультиплекса РТРС-1 в стандарте DVB-T2. Монтаж и ремукс программой VideoReDo.
Если вы испытываете какие-либо проблемы с его просмотром на компьютере (включая "эффект расчески" или низкое качество видео в сравнении со скриншотами), то можете использовать портативную версию VLC плеера как наиболее универсальное средство их решения. Бытовые плееры, поддерживающие mkv-формат, не должны иметь каких-либо сложностей.
Большой балет. Сезон 2
Качество видео: DVB-AVC
Формат/Контейнер: MKV
Видео кодек: H.264
Аудио кодек: MP2
Видео поток: 720x576 (4:3) 50fps ~2500kbps
Аудио поток: 48000Hz 2ch mono 192kbps

MI

Format : Matroska
Format version : Version 2
File size : 808 MiB
Duration : 40mn 18s
Overall bit rate : 2 804 Kbps
Writing application : Lavf54.63.104
Writing library : Lavf54.63.104
Video
ID : 1
Format : AVC
Format/Info : Advanced Video Codec
Format profile : Main@L3.0
Format settings, CABAC : Yes
Format settings, ReFrames : 3 frames
Format settings, GOP : M=4, N=28
Codec ID : V_MPEG4/ISO/AVC
Duration : 40mn 18s
Bit rate : 2 557 Kbps
Width : 720 pixels
Height : 576 pixels
Display aspect ratio : 4:3
Original display aspect ratio : 4:3
Frame rate mode : Constant
Frame rate : 25.000 fps
Standard : Component
Color space : YUV
Chroma subsampling : 4:2:0
Bit depth : 8 bits
Scan type : Interlaced
Scan order : Top Field First
Bits/(Pixel*Frame) : 0.247
Stream size : 737 MiB (91%)
Default : No
Forced : No
Color primaries : BT.601 PAL
Transfer characteristics : BT.470 System B, BT.470 System G
Matrix coefficients : BT.601
Audio
ID : 2
Format : MPEG Audio
Format version : Version 1
Format profile : Layer 2
Codec ID : A_MPEG/L2
Codec ID/Hint : MP2
Duration : 40mn 18s
Bit rate mode : Constant
Bit rate : 192 Kbps
Channel(s) : 2 channels
Sampling rate : 48.0 KHz
Compression mode : Lossy
Delay relative to video : -40ms
Stream size : 55.3 MiB (7%)
Language : English
Default : Yes
Forced : No

Скриншоты




Показать сообщения:    

Текущее время: 04-Дек 06:48

Часовой пояс: UTC + 3


Вы не можете начинать темы
Вы не можете отвечать на сообщения
Вы не можете редактировать свои сообщения
Вы не можете удалять свои сообщения
Вы не можете голосовать в опросах
Вы не можете прикреплять файлы к сообщениям
Вы не можете скачивать файлы