Мой ужин с Андре / My Dinner with Andre (Луи Маль / Louis Malle) [1981, США, драма, комедия, биография, BDRip] MVO (Cinema Prestige) + Sub (Eng) + Original (Eng)


 

[Цитировать]

Мой ужин с Андре / My Dinner with Andre
Страна: США
Жанр: драма, комедия, биография
Годы выпуска: 1981
Продолжительность: 01:51:43
Перевод: Профессиональный (многоголосый закадровый) Cinema Prestige
Субтитры: английские
Оригинальная аудиодорожка: английский
Режиссер: Луи Маль / Louis Malle
В ролях: Уоллес Шоун, Андре Грегори, Жан Леноэ, Рой Батлер
Описание: Шоун, чьи пьесы не пользуются особым успехом, зарабатывает на жизнь актерством. Грегори, некогда прославившийся авангардистскими театральными постановками, несколько лет пребывает в творческом кризисе. Они давно не виделись, а теперь встретились, чтобы поговорить — о жизни и смерти, одиночестве и счастье, о культуре и идеологии, об окружающем мире и месте человека в нем, об истинных ценностях и иллюзорных целях…
Доп. информация:
Качество видео: BDRip | Core_soul/BDRemux 1080p
Формат видео: AVI
Видео: 720x432 (1.67:1), 23.976 fps, XviD build 73 ~1566 kbps avg, 0.21 bit/pixel
Аудио 1: 48 kHz, AC3 Dolby Digital, 2/0 (L,R) ch, ~192 kbps MVO
Аудио 2: 48 kHz, AC3 Dolby Digital, 1/0 (C) ch, ~96 kbps оригинал
Формат субтитров: softsub (SRT)

MediaInfo

General
Complete name : C:\My.Dinner.with.Andre.1981.BDRip.MVO.Eng_by_LBS.avi
Format : AVI
Format/Info : Audio Video Interleave
File size : 1.46 GiB
Duration : 1h 51mn
Overall bit rate : 1 870 Kbps
Director : Last Boy Scout
Writing application : VirtualDubMod 1.5.10.3 | www.virtualdub-fr.org || (build 2550/release)
Copyright : rutracker.org 28.02.2016
Comment : BDRip MVO (Cinema Prestige) + Original (Eng)
Video
ID : 0
Format : MPEG-4 Visual
Format profile : Advanced Simple@L5
Format settings, BVOP : 1
Format settings, QPel : No
Format settings, GMC : No warppoints
Format settings, Matrix : Custom
Codec ID : XVID
Codec ID/Hint : XviD
Duration : 1h 51mn
Bit rate : 1 568 Kbps
Width : 720 pixels
Height : 432 pixels
Display aspect ratio : 1.667
Frame rate : 23.976 fps
Color space : YUV
Chroma subsampling : 4:2:0
Bit depth : 8 bits
Scan type : Progressive
Compression mode : Lossy
Bits/(Pixel*Frame) : 0.210
Stream size : 1.22 GiB (84%)
Writing library : XviD 73
Audio #1
ID : 1
Format : AC-3
Format/Info : Audio Coding 3
Mode extension : CM (complete main)
Format settings, Endianness : Big
Codec ID : 2000
Duration : 1h 51mn
Bit rate mode : Constant
Bit rate : 192 Kbps
Channel(s) : 2 channels
Channel positions : Front: L R
Sampling rate : 48.0 KHz
Bit depth : 16 bits
Compression mode : Lossy
Stream size : 153 MiB (10%)
Alignment : Split accross interleaves
Interleave, duration : 42 ms (1.00 video frame)
Interleave, preload duration : 500 ms
Audio #2
ID : 2
Format : AC-3
Format/Info : Audio Coding 3
Mode extension : CM (complete main)
Format settings, Endianness : Big
Codec ID : 2000
Duration : 1h 51mn
Bit rate mode : Constant
Bit rate : 96.0 Kbps
Channel(s) : 1 channel
Channel positions : Front: C
Sampling rate : 48.0 KHz
Bit depth : 16 bits
Compression mode : Lossy
Stream size : 76.7 MiB (5%)
Alignment : Split accross interleaves
Interleave, duration : 42 ms (1.00 video frame)
Interleave, preload duration : 500 ms

Скриншоты




Показать сообщения:    

Текущее время: 18-Янв 02:34

Часовой пояс: UTC + 3


Вы не можете начинать темы
Вы не можете отвечать на сообщения
Вы не можете редактировать свои сообщения
Вы не можете удалять свои сообщения
Вы не можете голосовать в опросах
Вы не можете прикреплять файлы к сообщениям
Вы не можете скачивать файлы