Magnificat & Jubilate (Vivaldi - Magnificat; Bach - Magnificat; Handel - Glory) Jordi Savall, La Capella Reial de Catalunya, Le Concert des Nations [2013, Baroque sacred, HDTV 720p]


 

[Цитировать]

Antonio Vivaldi - Magnificat en sol mineur
Johann Sebastian Bach - Magnificat en ré majeurGeorg Friedrich Händel - Glory Be to the Father do Jubilate Deo
Jordi Savall • La Capella Reial de Catalunya • Le Concert des Nations

-
Год выпуска: 2013
Лейбл: Karl More Productions / CIMA / CVS
Жанр: Baroque sacred
Продолжительность: 00:59:59
Режиссер: Benjamin Bleton
Исполнители:
La Capella Reial de Catalunya
Le Concert des Nations
Jordi Savall - direction musicale
Hanna Bayodi-Hirt - soprano
Johannette Zomer - soprano
Damien Guillon - contre-ténor
David Munderloh - ténor
Stephan MacLeod - baryton
Треклист:
Antonio Vivaldi - Magnificat en sol mineur RV 610 (version 1)
Johann Sebastian Bach
- Air de la Suite pour orchestre n°3 en ré majeur BWV 1068
- Magnificat en ré majeur BWV 243
Georg Friedrich Händel - Glory Be to the Father do Jubilate Deo (O' Be Joyful) pour la paix la paux d'Utrecht HWV 279
Доп. информация:
Concert enregistré à Chapelle Royale du Château de Versailles
"Magnificat" et "Jubilate Deo" à Versailles arte.tv/guide
Jordi Savall from Wikipedia, the free encyclopedia
Качество видео: HDTV 720p
Контейнер: TS
Видео кодек: H.264
Аудио кодек: AC3
Видео поток: 7 201 Kbps, 1280*720 (16:9), at 50.000 fps, AVC (High@L4.0) (CABAC / 4 Ref Frames)
Аудио поток: German, 192 Kbps, 48.0 KHz, 2 channels, MPEG Audio (Version 1) (Layer 2)
Аудио 2: French, 192 Kbps, 48.0 KHz, 2 channels, MPEG Audio (Version 1) (Layer 2)
Аудио 3: Multiple languages, 448 Kbps, 48.0 KHz, 16 bits, 6 channels, AC-3
Аудио 4: 192 Kbps, 48.0 KHz, 2 channels, MPEG Audio (Version 1) (Layer 2)
Источник: Digital Satellite > SkyStar HD2 (TechniSat) > raw data to HDD > Cypheros TS-Doctor > Smart Cutter (cut) > ts

MediaInfo

General
ID : 8900 (0x22C4)
Complete name : C:\rutracker.org_HD\arte HD_Magnificat & Jubilate (Jordi Savall) 2013.ts
Format : MPEG-TS
File size : 3.63 GiB
Duration : 59mn 59s
Overall bit rate mode : Variable
Overall bit rate : 8 664 Kbps
Video
ID : 5111 (0x13F7)
Menu ID : 10302 (0x283E)
Format : AVC
Format/Info : Advanced Video Codec
Format profile : High@L4.0
Format settings, CABAC : Yes
Format settings, ReFrames : 4 frames
Codec ID : 27
Duration : 1h 0mn
Bit rate : 7 201 Kbps
Width : 1 280 pixels
Height : 720 pixels
Display aspect ratio : 16:9
Frame rate : 50.000 fps
Color space : YUV
Chroma subsampling : 4:2:0
Bit depth : 8 bits
Scan type : Progressive
Bits/(Pixel*Frame) : 0.156
Stream size : 3.02 GiB (83%)
Audio #1
ID : 5112 (0x13F8)
Menu ID : 10302 (0x283E)
Format : MPEG Audio
Format version : Version 1
Format profile : Layer 2
Codec ID : 3
Duration : 59mn 59s
Bit rate mode : Constant
Bit rate : 192 Kbps
Channel(s) : 2 channels
Sampling rate : 48.0 KHz
Compression mode : Lossy
Delay relative to video : -7ms
Stream size : 82.4 MiB (2%)
Language : German
Audio #2
ID : 5113 (0x13F9)
Menu ID : 10302 (0x283E)
Format : MPEG Audio
Format version : Version 1
Format profile : Layer 2
Codec ID : 3
Duration : 59mn 59s
Bit rate mode : Constant
Bit rate : 192 Kbps
Channel(s) : 2 channels
Sampling rate : 48.0 KHz
Compression mode : Lossy
Delay relative to video : -7ms
Stream size : 82.4 MiB (2%)
Language : French
Audio #3
ID : 5116 (0x13FC)
Menu ID : 10302 (0x283E)
Format : AC-3
Format/Info : Audio Coding 3
Mode extension : CM (complete main)
Format settings, Endianness : Big
Codec ID : 6
Duration : 59mn 59s
Bit rate mode : Constant
Bit rate : 448 Kbps
Channel(s) : 6 channels
Channel positions : Front: L C R, Side: L R, LFE
Sampling rate : 48.0 KHz
Bit depth : 16 bits
Compression mode : Lossy
Delay relative to video : -12ms
Stream size : 192 MiB (5%)
Language : Multiple languages
Audio #4
ID : 5117 (0x13FD)
Menu ID : 10302 (0x283E)
Format : MPEG Audio
Format version : Version 1
Format profile : Layer 2
Codec ID : 3
Duration : 59mn 59s
Bit rate mode : Constant
Bit rate : 192 Kbps
Channel(s) : 2 channels
Sampling rate : 48.0 KHz
Compression mode : Lossy
Delay relative to video : -7ms
Stream size : 82.4 MiB (2%)



Показать сообщения:    

Текущее время: 07-Дек 13:32

Часовой пояс: UTC + 3


Вы не можете начинать темы
Вы не можете отвечать на сообщения
Вы не можете редактировать свои сообщения
Вы не можете удалять свои сообщения
Вы не можете голосовать в опросах
Вы не можете прикреплять файлы к сообщениям
Вы не можете скачивать файлы