Бал / Le bal / Ballando ballando (Этторе Скола / Ettore Scola) [1983, Франция, Италия, Алжир, музыкальная драма, BDRip-AVC] VO (R5) + Original (Fre)


 

[Цитировать]

БалLe bal | Ballando ballando- Страна: Франция, Италия, Алжир
Студия: Massfilm, Cinéproduction, Films A2
Жанр: музыкальная драма
Год выпуска: 1983
Продолжительность: 01:47:11Перевод: Студийный (одноголосый закадровый: переведены начальные и заключительные титры) [Cinema Prestige]
Cубтитры: нет
Оригинальная аудиодорожка: французский (музыка и песни)-Режиссер:
Этторе Скола / Ettore Scola
В ролях: Нани Ноэль / Nani Noël (La fille de joie / La jeune juive / La refugiée / La jeune qui peint ses basses), Жан-Франсуа Перрье / Jean Francois Perrier (Le sacristain amoureux), Марк Берман / Marc Berman (L'aristo / Le planqué / Le collaborationiste), Мишель ван Спиброек / Michel van Speybroeck (L'homme qui vient de loin / Jean Gabin), Жан-Клод Пеншена / Jean-Claude Penchenat (La 'croix de feu')-ОписаниеФильм "Бал" Этторе Скола - это один из самых необычных фильмов в истории мирового кино.
Все действие разворачивается в гипотетическом Парижском дансинге, когда зажигаются огни танцпола и начинает играть музыка и пришедшие люди, разделяясь на пары, окунаются в водоворот страстей и чувственных переживаний. Только при помощи пантомимы и танца актеры блестяще разыгрывают семь новелл, в которых переданы социальные нравы, настроения, мода и взаимоотношения мужчины и женщины на протяжении нескольких десятилетий французской истории. "Бал" - это размышление на вечную тему любви и одиночества.
-Сэмпл

IMDb: 8.00 (1703)
Сезар, 1984 год
Победитель (3):
Лучший фильм
Лучший режиссер ( Этторе Скола )
Лучший саундтрек

Качество видео: BDRip-AVC Le bal 1983 1080p Blu-ray Remux AVC DD 5.1 - KRaLiMaRKo
Формат видео: MKV
Видео: AVC 4393 Kbps 1056 x 630 (1.676) 25.000 fps
Аудио: AC-3 384 Kbps 6 channels, 48.0 KHz VO Rus
Аудио 2: AC-3 384 Kbps 6 channels, 48.0 KHz Fre

MediaInfo | LogLog

x264 [info]: frame I:811 Avg QP:17.64 size: 81426
x264 [info]: frame P:32536 Avg QP:18.73 size: 43437
x264 [info]: frame B:127428 Avg QP:20.84 size: 16750
x264 [info]: consecutive B-frames: 0.8% 1.3% 6.0% 18.2% 16.9% 52.1% 4.1% 0.3% 0.1% 0.0% 0.0% 0.0% 0.0% 0.0% 0.0%
x264 [info]: mb I I16..4: 1.0% 91.4% 7.7%
x264 [info]: mb P I16..4: 0.3% 28.3% 1.1% P16..4: 26.1% 31.5% 11.2% 1.0% 0.0% skip: 0.4%
x264 [info]: mb B I16..4: 0.0% 3.4% 0.1% B16..8: 34.5% 25.9% 4.6% direct: 8.6% skip:22.9% L0:39.5% L1:42.5% BI:18.0%
x264 [info]: 8x8 transform intra:95.0% inter:61.4%
x264 [info]: direct mvs spatial:100.0% temporal:0.0%
x264 [info]: coded y,uvDC,uvAC intra: 98.0% 77.8% 44.3% inter: 40.8% 27.3% 1.2%
x264 [info]: i16 v,h,dc,p: 32% 32% 2% 34%
x264 [info]: i8 v,h,dc,ddl,ddr,vr,hd,vl,hu: 11% 8% 8% 9% 14% 12% 13% 12% 13%
x264 [info]: i4 v,h,dc,ddl,ddr,vr,hd,vl,hu: 18% 11% 2% 7% 14% 14% 13% 10% 11%
x264 [info]: i8c dc,h,v,p: 32% 28% 22% 17%
x264 [info]: Weighted P-Frames: Y:9.9% UV:4.7%
x264 [info]: ref P L0: 39.2% 13.9% 20.0% 6.4% 5.8% 3.5% 3.6% 1.9% 2.0% 1.6% 1.9% 0.3% 0.0%
x264 [info]: ref B L0: 83.7% 8.0% 2.9% 1.7% 1.0% 0.9% 0.7% 0.5% 0.3% 0.2%
x264 [info]: ref B L1: 96.9% 3.1%
x264 [info]: kb/s:4495.34
x264 [total]: encoded 160775 frames, 6.41 fps, 4495.34 kb/s, duration 6:57:54.09
Format : Matroska
Format version : Version 4 / Version 2
File size : 3.94 GiB
Duration : 1h 47mn
Overall bit rate : 5 265 Kbps
Encoded date : UTC 2016-02-28 20:15:43
Writing application : mkvmerge v6.7.0 ('Back to the Ground') 32bit built on Jan 8 2014 15:03:17
Writing library : libebml v1.3.0 + libmatroska v1.4.1
Video
ID : 1
Format : AVC
Format/Info : Advanced Video Codec
Format profile : High@L4.1
Format settings, CABAC : Yes
Format settings, ReFrames : 11 frames
Codec ID : V_MPEG4/ISO/AVC
Duration : 1h 47mn
Bit rate : 4 393 Kbps
Width : 1 056 pixels
Height : 630 pixels
Display aspect ratio : 5:3
Frame rate mode : Constant
Frame rate : 25.000 fps
Color space : YUV
Chroma subsampling : 4:2:0
Bit depth : 8 bits
Scan type : Progressive
Bits/(Pixel*Frame) : 0.264
Stream size : 3.29 GiB (83%)
Title : Le Bal (1983) [rutracker.org]
Writing library : x264 core 148 r2638kMod 7599210
Encoding settings : cabac=1 / ref=11 / deblock=1:-2:-2 / analyse=0x3:0x133 / me=umh / subme=11 / psy=1 / fade_compensate=0.00 / psy_rd=1.00:0.05 / mixed_ref=1 / me_range=48 / chroma_me=1 / trellis=2 / 8x8dct=1 / cqm=0 / deadzone=21,11 / fast_pskip=0 / chroma_qp_offset=-3 / threads=12 / lookahead_threads=3 / sliced_threads=0 / nr=0 / decimate=1 / interlaced=0 / bluray_compat=0 / constrained_intra=0 / fgo=0 / bframes=14 / b_pyramid=2 / b_adapt=2 / b_bias=0 / direct=3 / weightb=1 / open_gop=0 / weightp=2 / keyint=250 / keyint_min=25 / scenecut=40 / intra_refresh=0 / rc_lookahead=60 / rc=crf / mbtree=0 / crf=17.8000 / qcomp=0.60 / qpmin=0 / qpmax=69 / qpstep=4 / vbv_maxrate=50000 / vbv_bufsize=62500 / crf_max=0.0 / nal_hrd=none / filler=0 / ip_ratio=1.40 / pb_ratio=1.30 / aq=3:0.90
Language : French
Default : Yes
Forced : No
Audio #1
ID : 2
Format : AC-3
Format/Info : Audio Coding 3
Mode extension : CM (complete main)
Format settings, Endianness : Big
Codec ID : A_AC3
Duration : 1h 47mn
Bit rate mode : Constant
Bit rate : 384 Kbps
Channel(s) : 6 channels
Channel positions : Front: L C R, Side: L R, LFE
Sampling rate : 48.0 KHz
Compression mode : Lossy
Stream size : 294 MiB (7%)
Title : VO [Cinema Prestige]
Language : Russian
Default : Yes
Forced : No
Audio #2
ID : 3
Format : AC-3
Format/Info : Audio Coding 3
Mode extension : CM (complete main)
Format settings, Endianness : Big
Codec ID : A_AC3
Duration : 1h 47mn
Bit rate mode : Constant
Bit rate : 384 Kbps
Channel(s) : 6 channels
Channel positions : Front: L C R, Side: L R, LFE
Sampling rate : 48.0 KHz
Compression mode : Lossy
Stream size : 294 MiB (7%)
Title : Original
Language : French
Default : No
Forced : No
Menu
00:00:00.000 : en:LES DANSEUSES
00:07:27.200 : en:LES DANSEURS
00:12:40.040 : en:PREMIÉRES DANSES
00:20:45.040 : en:LE FRONT POPULAIRE
00:41:09.880 : en:LA GUERRE
00:50:13.120 : en:L'OCCUPATION
00:56:26.880 : en:LA LIBÉRATION
01:03:46.720 : en:LES AMÉRICAINS
01:12:13.080 : en:LA GUERRE D'ALGÉRIE
01:29:53.800 : en:MAI 68
01:33:28.840 : en:DISCO
01:36:58.000 : en:FIN DE SOIRÉE

Скриншоты







Показать сообщения:    

Текущее время: 07-Дек 13:36

Часовой пояс: UTC + 3


Вы не можете начинать темы
Вы не можете отвечать на сообщения
Вы не можете редактировать свои сообщения
Вы не можете удалять свои сообщения
Вы не можете голосовать в опросах
Вы не можете прикреплять файлы к сообщениям
Вы не можете скачивать файлы