Горничная / Служанка / Hanyo / The Housemaid (Ким Ки-Ён / Kim Ki-young) [1960, Южная Корея, Драма, Криминал, Ужасы, DVD9 (Custom)] VO(liosaa) + Sub Eng, Rus + Original Kor / Criterion Collection#690


Статистика раздачи [Обновить пиров]
Размер:  7.78 GB   |    Зарегистрирован:  8 месяцев 20 дней   |    Скачан:  0 раз

Полного источника не было: Никогда

 
   
 
 
 

[Цитировать]

Горничная / Служанка / Hanyo / The Housemaid / Criterion Collection#690
Страна:Корея ЮжнаяСтудия:Hanguk Munye Yeonghwa, Kim Ki-Young Production.Жанр:Драма, Криминал, УжасыГод выпуска:1960
Продолжительность:01:51:30Производство:The Criterion Collection #690Перевод:Одноголосый (закадровый) liosaaCубтитры:Английские, Русские liosaaПремьера (мир):3.11.1960
Режиссер:Ким Ки-Ён / Kim Ki-youngВ ролях:Джин Кю Ким, Юн-Нё Ю, Юн-шим Ли, Аенг-рэн Ём, Сон-э Ко, Sook-Rang Wang, Сок-чже Кан, Чжон-ок На, Ан Сон Ги, Yoo-ri Lee
Описание:В семье учителя музыки Донг Сика двое детей. Его жена беременна третьим ребёнком. Супруги недавно приобрели новый дом. Желая облегчить жене ведение нового большого хозяйства, Донг Сик нанимает служанку — молодую красивую женщину. Но, как оказалось, горничная не случайно стремилась устроиться на работу именно в этот дом: у неё есть повод мстить его хозяевам. Девушка соблазняет Донг Сика и полностью подчиняет его волю своей. Жизнь других обитателей дома становится кошмаром.
Доп. информация:Исходник найден в сети.Русский звук и субтитрыПеревод и озвучка сделанна liosaa .Меню неотредактировано, переключение звуковых дорожек с пульта.Огромное СпасибоВсем, без чьей помощи этот релиз не состоялся бы! Сценарий:Ки-янг КимОператор:Ток-чжин КимКомпозитор:Сан-ки ХанХудожник:Сок-ин ПакМонтаж:Ён-гын О

Рецензия

Софт

PgcDemux 1.2.0.5 - разделение компонентов диска на файлы;
BeHappy + BeLight - MP3, AC3 -> Wav
Sound Forge pro 10 - Wav -> AC3
Subtitle Workshop, SubtitleCreator, DVDSubEdit (субтитры).MuxMan DVD authoring Professional 1.4.4 - мультиплексирование и авторингDVDRemake Pro 3.6.3 - реавторинг DVD;
DVD Shrink 3.2 - Сэмпл
--
VO

Точка перехода

Бонусы:(Без перевода)

- New digital restoration, undertaken by the World Cinema Project in collaboration with the Cineteca di Bologna.
- New introduction to the film by World Cinema Project founder Martin Scorsese.
- New interview program featuring filmmaker Bong Joon-ho.
- New English subtitle translation.
Меню:Английский, статичное, неозвученное.Сэмпл:https://www.sendspace.com/file/ix1m0tТип релиза:DVD9 (Custom)
Контейнер:DVD-Video
Видео:NTSC 16:9 (720x480) VBR, Auto Letterboxed, 7800 Кбит / сек, 23,976 (24000/1001) кадра/секАудио 1:Корейский:AC3, 1 ch, 48.0 KHz, 384 Кбит / сек / (Оригинал)Аудио 2:Русский:AC3, 2 ch, 48.0 KHz, 192 Кбит / сек / Одноголосый (закадровый) liosaaФормат субтитров:prerendered (DVD/IDX+SUB)

Dvd Info

Title: W(media)
Size: 7.78 Gb ( 8 159 152 KBytes ) - DVD-9
Enabled regions: 1, 2, 3, 4, 5, 6, 7, 8
VTS_01 :
Play Length:
Video: NTSC 16:9 (720x480) VBR, Auto Letterboxed
VTS_02 :
Play Length: 00:15:03
Video: NTSC 16:9 (720x480) VBR, Auto Letterboxed
Audio:
Korean (Dolby AC3, 1 ch)
Subtitles:
English
VTS_03 :
Play Length: 01:51:30
Video: NTSC 16:9 (720x480) VBR, Auto Letterboxed
Audio:
Korean (Dolby AC3, 1 ch)
Russian (Dolby AC3, 2 ch)
Subtitles:
English
Russian
VTS_04 :
Play Length: 00:00:20
Video: NTSC 16:9 (720x480) VBR, Auto Pan&Scan
VTS_05 :
Play Length: 00:02:17
Video: NTSC 16:9 (720x480) VBR, Auto Letterboxed
Audio:
English (Dolby AC3, 1 ch)
VTS_06 :
Play Length:
Video: NTSC 4:3 (720x480) VBR

Mediainfo

Общее
Полное имя : F:\The Housemaid DVD-9_Custom_Criterion#690\VIDEO_TS\VTS_03_1.VOB
Формат : MPEG-PS
Размер файла : 1024 Мбайт
Продолжительность : 16 м.
Режим общего битрейта : Переменный
Общий поток : 8546 Кбит/сек
Видео
Идентификатор : 224 (0xE0)
Формат : MPEG Video
Версия формата : Version 2
Профиль формата : Main@Main
Параметр BVOP формата : Да
Параметр матрицы формата : Выборочная
Параметр GOP формата : Variable
Продолжительность : 16 м.
Вид битрейта : Переменный
Битрейт : 7800 Кбит/сек
Максимальный битрейт : 9800 Кбит/сек
Ширина : 720 пикселей
Высота : 480 пикселей
Соотношение сторон : 16:9
Частота кадров : 23,976 (24000/1001) кадра/сек
Цветовое пространство : YUV
Субдискретизация насыщенности : 4:2:0
Битовая глубина : 8 бит
Тип развёртки : Прогрессивная
Порядок развёртки : 2:3 Pulldown
Метод сжатия : С потерями
Бит/(Пиксели*Кадры) : 0.941
Временной код первого кадра : 00:59:40:00
Оригинал временного кода : Group of pictures header
Размер потока : 935 Мбайт (91%)
Аудио #1
Идентификатор : 189 (0xBD)-128 (0x80)
Формат : AC-3
Формат/Информация : Audio Coding 3
Расширение режима : CM (complete main)
Параметр Endianness формата : Big
Режим смешивания : DVD-Video
Продолжительность : 16 м.
Вид битрейта : Постоянный
Битрейт : 384 Кбит/сек
Каналы : 1 канал
Расположение каналов : Front: C
Частота : 48,0 КГц
Частота кадров : 31,250 кадров/сек (1536 spf)
Метод сжатия : С потерями
Размер потока : 46,0 Мбайт (4%)
Аудио #2
Идентификатор : 189 (0xBD)-129 (0x81)
Формат : AC-3
Формат/Информация : Audio Coding 3
Расширение режима : CM (complete main)
Параметр Endianness формата : Big
Режим смешивания : DVD-Video
Продолжительность : 16 м.
Вид битрейта : Постоянный
Битрейт : 192 Кбит/сек
Каналы : 2 канала
Расположение каналов : Front: L R
Частота : 48,0 КГц
Частота кадров : 31,250 кадров/сек (1536 spf)
Метод сжатия : С потерями
Размер потока : 23,0 Мбайт (2%)
Текст #1
Идентификатор : 189 (0xBD)-32 (0x20)
Формат : RLE
Формат/Информация : Run-length encoding
Режим смешивания : DVD-Video
Текст #2
Идентификатор : 189 (0xBD)-33 (0x21)
Формат : RLE
Формат/Информация : Run-length encoding
Режим смешивания : DVD-Video

Скриншоты меню

Скриншоты фильма

Скриншоты доп. материалов


Полиграфия




[teatrix.ru].t23149.torrent 
Торрент: Зарегистрирован [ 2016-03-21 00:32 ] · 5C0891D1F353081AB38ED80F0E0651AC7B80774F

Скачать .torrent

Скачать

41 KB

Статус: проверено
Скачан: 0 раз
Размер: 7.78 GB
terms.php



Быстрый ответ

Имя:

      
Для отправки сообщений необходимо включить JavaScript
Показать сообщения:    

Текущее время: 10-Дек 02:10

Часовой пояс: UTC + 3


Вы можете начинать темы
Вы можете отвечать на сообщения
Вы не можете редактировать свои сообщения
Вы не можете удалять свои сообщения
Вы не можете голосовать в опросах
Вы не можете прикреплять файлы к сообщениям
Вы можете скачивать файлы