Белые ночи / Le Notti Bianche (Лукино Висконти / Luchino Visconti) [1957, Италия, Франция, драма, мелодрама, BDRip 720p] MVO + Sub (Rus, Eng) + Original Ita


 

[Цитировать]

Белые ночи / Le Notti Bianche
Страна: Италия, Франция
Жанр: драма, мелодрама
Год выпуска: 1957
Продолжительность: 01:41:46
Перевод: Профессиональный (многоголосый закадровый) Film Prestige
Cубтитры: русские (2 вида), английские
Оригинальная аудиодорожка: итальянский-Режиссер: Лукино Висконти / Luchino Visconti
В ролях: Мария Шелл, Марчелло Мастроянни, Жан Маре, Елена Фанчера, Анджело Галасси, Ренато Терра, Коррадо Пани, Мария Заноли, Пьетро Чеккарелли, Марчелла Ровена, Винни Рива, Дирк Сандерс, Клара Каламаи, Мария-Пиа Касилио
Описание: Экранизируя в 1957 году повесть Ф.М. Достоевского «Белые ночи», Лукино Висконти полностью уходит от идеалов неореализма и создает романтическое произведение. Он перенес действе в современный ему Ливорно и насытил ткань фильма лиризмом, вольной игрой фантазии, театрализацией. Открытый им для кинематографа Марчелло Мастроянни великолепен в роли Марио. А немецкая актриса Мария Шелл — в роли Натальи, мечтающей о принце на белом коне. И такой принц появляется — Жан Маре в расцвете красоты, олицетворяющий собою романтического героя французской девушки 50-х. Повесть Ф.М. Достоевского открывала возможность бегства от действительности и создавала контраст между пробуждением к реальной жизни, где все ничтожно, и тремя ночными часами, проведенными с этой девушкой. Часами как бы во сне, вне реальности, как бы невозможными в обычной жизни.
IMDb || КиноПоиск-Тип релиза: BDRip 720p [GrupoHDS]
Контейнер: MKV
Видео: x264/AVC, 1200x720 at 23.976 fps, 9331 kbps
Аудио#1: Russian: 48 kHz, AC3, 2.0 ch, 192 kbps
Аудио#2: Italian: 48 kHz, AC3, 2.0 ch, 192 kbps
Формат субтитров: softsub (SRT)
Сэмпл

MediaInfo

General
Unique ID : 219397025603838973655382197045579881700 (0xA50E548387BFD197B4D2234E4CFA1CE4)
Complete name : Le Notti Biance.1957.720p.rutracker.mkv
Format : Matroska
Format version : Version 2
File size : 7.04 GiB
Duration : 1h 41mn
Overall bit rate : 9 908 Kbps
Movie name : Release for RuTracker
Writing application : mkvmerge v5.0.1 ('Es ist Sommer') built on Nov 6 2011 16:23:40
Writing library : libebml v1.2.2 + libmatroska v1.3.0
Video
ID : 1
Format : AVC
Format/Info : Advanced Video Codec
Format profile : High@L4.1
Format settings, CABAC : Yes
Format settings, ReFrames : 9 frames
Codec ID : V_MPEG4/ISO/AVC
Duration : 1h 41mn
Bit rate : 9 327 Kbps
Width : 1 200 pixels
Height : 720 pixels
Display aspect ratio : 1.667
Frame rate mode : Constant
Frame rate : 23.976 fps
Color space : YUV
Chroma subsampling : 4:2:0
Bit depth : 8 bits
Scan type : Progressive
Bits/(Pixel*Frame) : 0.450
Stream size : 6.63 GiB (94%)
Title : Le Notti Biance.1957.720p.x264-GrupoHDS. rutracker
Writing library : x264 core 148 r2665 a01e339
Encoding settings : cabac=1 / ref=9 / deblock=1:-3:-3 / analyse=0x3:0x133 / me=umh / subme=11 / psy=1 / psy_rd=1.10:0.00 / mixed_ref=1 / me_range=32 / chroma_me=1 / trellis=2 / 8x8dct=1 / cqm=0 / deadzone=21,11 / fast_pskip=0 / chroma_qp_offset=-2 / threads=18 / lookahead_threads=3 / sliced_threads=0 / nr=0 / decimate=0 / interlaced=0 / bluray_compat=0 / constrained_intra=0 / bframes=8 / b_pyramid=2 / b_adapt=2 / b_bias=0 / direct=3 / weightb=1 / open_gop=0 / weightp=2 / keyint=240 / keyint_min=23 / scenecut=40 / intra_refresh=0 / rc_lookahead=60 / rc=crf / mbtree=0 / crf=17.0 / qcomp=0.70 / qpmin=0 / qpmax=51 / qpstep=4 / vbv_maxrate=40000 / vbv_bufsize=40000 / crf_max=0.0 / nal_hrd=none / filler=0 / ip_ratio=1.20 / pb_ratio=1.20 / aq=3:0.60
Language : Italian
Default : Yes
Forced : No
Audio #1
ID : 2
Format : AC-3
Format/Info : Audio Coding 3
Mode extension : CM (complete main)
Format settings, Endianness : Big
Codec ID : A_AC3
Duration : 1h 41mn
Bit rate mode : Constant
Bit rate : 192 Kbps
Channel(s) : 2 channels
Channel positions : Front: L R
Sampling rate : 48.0 KHz
Bit depth : 16 bits
Compression mode : Lossy
Stream size : 140 MiB (2%)
Title : Film Prestige
Language : Russian
Default : Yes
Forced : No
Audio #2
ID : 3
Format : AC-3
Format/Info : Audio Coding 3
Mode extension : CM (complete main)
Format settings, Endianness : Big
Codec ID : A_AC3
Duration : 1h 41mn
Bit rate mode : Constant
Bit rate : 192 Kbps
Channel(s) : 2 channels
Channel positions : Front: L R
Sampling rate : 48.0 KHz
Bit depth : 16 bits
Compression mode : Lossy
Stream size : 140 MiB (2%)
Language : Italian
Default : No
Forced : No
Text #1
ID : 4
Format : UTF-8
Codec ID : S_TEXT/UTF8
Codec ID/Info : UTF-8 Plain Text
Title : Film Prestige
Language : Russian
Default : No
Forced : No
Text #2
ID : 5
Format : UTF-8
Codec ID : S_TEXT/UTF8
Codec ID/Info : UTF-8 Plain Text
Title : ThePooh & Co.
Language : Russian
Default : No
Forced : No
Text #3
ID : 6
Format : UTF-8
Codec ID : S_TEXT/UTF8
Codec ID/Info : UTF-8 Plain Text
Language : English
Default : No
Forced : No
Menu
00:00:00.000 : en:At loose ends
00:07:03.107 : en:The bridge... at midnight
00:11:04.121 : en:"You can trust me"
00:17:33.834 : en:Stood up
00:22:38.000 : en:A good reason
00:24:07.912 : en:Natalia's story
00:28:46.057 : en:A new tenant
00:48:00.906 : en:The letter
00:57:21.902 : en:Shame
01:06:22.000 : en:Nightclub
01:17:25.037 : en:Haunted by the past
01:19:35.417 : en:Mario finds trouble
01:23:09.063 : en:"You were right"
01:31:06.000 : en:Snowfall
01:36:41.828 : en:Fleeting happiness

Скриншоты




Показать сообщения:    

Текущее время: 04-Дек 00:49

Часовой пояс: UTC + 3


Вы не можете начинать темы
Вы не можете отвечать на сообщения
Вы не можете редактировать свои сообщения
Вы не можете удалять свои сообщения
Вы не можете голосовать в опросах
Вы не можете прикреплять файлы к сообщениям
Вы не можете скачивать файлы