Меланхолия / Melancholia (Ларс фон Триер / Lars von Trier) [2011, Дания, Швеция, Франция, Германия, фантастика, драма, BDRip 720p] MVO (R5) + Original Eng + Commentary + Sub Rus, Eng


 

[Цитировать]

-Меланхолия / Melancholia- Страна: Дания, Швеция, Франция, Германия
Жанр: фантастика, драма
Год выпуска: 2011
Продолжительность: 02:09:51
Перевод: Профессиональный (многоголосый закадровый) R5
Оригинальная аудиодорожка: английская-Режиссер: Ларс фон Триер / Lars von Trier
В ролях: Кирстен Данст, Шарлотта Генсбур, Кифер Сазерленд, Александр Скарсгард, Брэйди Корбет, Стеллан Скарсгард, Шарлотта Рэмплинг, Удо Кир, Камерон Спурр, Еспер Кристенсен-Описание: События фильма разворачиваются в дни, которые предшествуют катастрофе. Первая часть посвящена свадьбе Жюстин, которая быстро охладевает к торжеству, чем вызывает непонимание близких и гостей. Героиней второй части является Клэр, сестра Жюстин. Вначале Клэр ухаживает за впавшей в клиническую депрессию Жюстин и одновременно страшится сообщений о приближении таинственной планеты Меланхолия. Постепенно, по мере приближения планеты, Жюстин и Клэр меняются ролями. Теперь паникующая Клэр нуждается в заботе. В отчаянии она с сестрой и сыном готовится принять неизбежное.- -Сэмпл: https://yadi.sk/i/izQq-X93pjqYa-Тип релиза: BDRip 720p (DON/Nick007)
Контейнер: MKV
Исходник: Melancholia 2011 1080p US Blu-ray AVC DTS-HD MA 5.1-ROBiN
Видео: x264, 1280x544 (2.35:1), ~8592 kbps at 25.000 fps
Аудио#1: DTS Audio Russian 5.1 / 48 kHz / 1509 kbps / 24-bit - MVO R5
Аудио#2: DTS Audio English 5.1 / 48 kHz / 1509 kbps / 24-bit
Аудио#3: AAC English 2.0 / 48 kHz / 66 kbps - Commentary with Lars von Trier and Peter Schepelern
Cубтитры: Русские, English, Croatian, Czech, Danish, Finnish, French, Greek, Hungarian, Italian, Norwegian, Polish, Portuguese (Brazilian), Romanian, Serbian, Slovak, Spanish (Latin American), Swedish, Vietnamese

mi

Format                                   : Matroska
Format version : Version 4 / Version 2
File size : 10.6 GiB
Duration : 2h 9mn
Overall bit rate : 11.7 Mbps
Movie name : Melancholia (2011)
Encoded date : UTC 2016-02-29 16:07:12
Writing application : mkvmerge v8.8.0 ('Wind at my back') 64bit
Writing library : libebml v1.3.3 + libmatroska v1.4.4
Video
ID : 1
Format : AVC
Format/Info : Advanced Video Codec
Format profile : High@L4.1
Format settings, CABAC : Yes
Format settings, ReFrames : 12 frames
Codec ID : V_MPEG4/ISO/AVC
Duration : 2h 9mn
Bit rate : 8 591 Kbps
Width : 1 280 pixels
Height : 544 pixels
Display aspect ratio : 2.35:1
Frame rate mode : Constant
Frame rate : 25.000 fps
Color space : YUV
Chroma subsampling : 4:2:0
Bit depth : 8 bits
Scan type : Progressive
Bits/(Pixel*Frame) : 0.494
Stream size : 7.79 GiB (74%)
Writing library : x264 core 130 r2273 b3065e6
Encoding settings : cabac=1 / ref=12 / deblock=1:-3:-3 / analyse=0x3:0x133 / me=tesa / subme=10 / psy=1 / psy_rd=0.95:0.00 / mixed_ref=1 / me_range=24 / chroma_me=1 / trellis=2 / 8x8dct=1 / cqm=0 / deadzone=21,11 / fast_pskip=0 / chroma_qp_offset=-2 / threads=12 / lookahead_threads=2 / sliced_threads=0 / nr=0 / decimate=0 / interlaced=0 / bluray_compat=0 / constrained_intra=0 / bframes=9 / b_pyramid=2 / b_adapt=2 / b_bias=0 / direct=3 / weightb=1 / open_gop=0 / weightp=2 / keyint=250 / keyint_min=25 / scenecut=40 / intra_refresh=0 / rc_lookahead=60 / rc=crf / mbtree=0 / crf=14.5 / qcomp=0.75 / qpmin=0 / qpmax=69 / qpstep=4 / vbv_maxrate=50000 / vbv_bufsize=62500 / crf_max=0.0 / nal_hrd=none / ip_ratio=1.30 / pb_ratio=1.20 / aq=1:0.70 / zones=111800,111877,crf=12/112431,112514,crf=12/125253,125802,crf=11.5/128863,129141,crf=11/147395,147547,crf=11.5/149683,149803,crf=11.5/185268,185430,crf=12
Language : English
Default : Yes
Forced : No
Audio #1
ID : 2
Format : DTS
Format/Info : Digital Theater Systems
Mode : 16
Format settings, Endianness : Big
Codec ID : A_DTS
Duration : 2h 9mn
Bit rate mode : Constant
Bit rate : 1 509 Kbps
Channel(s) : 6 channels
Channel positions : Front: L C R, Side: L R, LFE
Sampling rate : 48.0 KHz
Frame rate : 93.750 fps (512 spf)
Bit depth : 24 bits
Compression mode : Lossy
Stream size : 1.37 GiB (13%)
Title : MVO R5
Language : Russian
Default : Yes
Forced : No
Audio #2
ID : 3
Format : DTS
Format/Info : Digital Theater Systems
Mode : 16
Format settings, Endianness : Big
Codec ID : A_DTS
Duration : 2h 9mn
Bit rate mode : Constant
Bit rate : 1 509 Kbps
Channel(s) : 6 channels
Channel positions : Front: L C R, Side: L R, LFE
Sampling rate : 48.0 KHz
Frame rate : 93.750 fps (512 spf)
Bit depth : 24 bits
Compression mode : Lossy
Stream size : 1.37 GiB (13%)
Language : English
Default : No
Forced : No
Audio #3
ID : 4
Format : AAC
Format/Info : Advanced Audio Codec
Format profile : HE-AAC / LC
Codec ID : A_AAC
Duration : 2h 9mn
Bit rate : 66.2 Kbps
Channel(s) : 2 channels
Channel positions : Front: L R
Sampling rate : 48.0 KHz / 24.0 KHz
Frame rate : 23.438 fps (1024 spf)
Compression mode : Lossy
Stream size : 61.7 MiB (1%)
Title : Commentary with Lars von Trier and Peter Schepelern
Language : English
Default : No
Forced : No
Text #1
ID : 5
Format : UTF-8
Codec ID : S_TEXT/UTF8
Codec ID/Info : UTF-8 Plain Text
Duration : 1h 56mn
Bit rate : 45 bps
Count of elements : 707
Stream size : 39.1 KiB (0%)
Language : Russian
Default : No
Forced : No
Text #2
ID : 6
Format : UTF-8
Codec ID : S_TEXT/UTF8
Codec ID/Info : UTF-8 Plain Text
Duration : 1h 53mn
Bit rate : 25 bps
Count of elements : 753
Stream size : 20.8 KiB (0%)
Language : Croatian
Default : No
Forced : No
Text #3
ID : 7
Format : UTF-8
Codec ID : S_TEXT/UTF8
Codec ID/Info : UTF-8 Plain Text
Duration : 1h 53mn
Bit rate : 23 bps
Count of elements : 674
Stream size : 19.7 KiB (0%)
Language : Czech
Default : No
Forced : No
Text #4
ID : 8
Format : UTF-8
Codec ID : S_TEXT/UTF8
Codec ID/Info : UTF-8 Plain Text
Duration : 1h 53mn
Bit rate : 27 bps
Count of elements : 681
Stream size : 23.0 KiB (0%)
Language : Danish
Default : No
Forced : No
Text #5
ID : 9
Format : UTF-8
Codec ID : S_TEXT/UTF8
Codec ID/Info : UTF-8 Plain Text
Duration : 1h 52mn
Bit rate : 30 bps
Count of elements : 920
Stream size : 24.8 KiB (0%)
Language : English
Default : No
Forced : No
Text #6
ID : 10
Format : UTF-8
Codec ID : S_TEXT/UTF8
Codec ID/Info : UTF-8 Plain Text
Duration : 1h 53mn
Bit rate : 21 bps
Count of elements : 736
Stream size : 17.6 KiB (0%)
Language : Finnish
Default : No
Forced : No
Text #7
ID : 11
Format : UTF-8
Codec ID : S_TEXT/UTF8
Codec ID/Info : UTF-8 Plain Text
Duration : 1h 53mn
Bit rate : 26 bps
Count of elements : 814
Stream size : 22.3 KiB (0%)
Language : French
Default : No
Forced : No
Text #8
ID : 12
Format : UTF-8
Codec ID : S_TEXT/UTF8
Codec ID/Info : UTF-8 Plain Text
Duration : 1h 53mn
Bit rate : 52 bps
Count of elements : 864
Stream size : 43.7 KiB (0%)
Language : Greek
Default : No
Forced : No
Text #9
ID : 13
Format : UTF-8
Codec ID : S_TEXT/UTF8
Codec ID/Info : UTF-8 Plain Text
Duration : 1h 53mn
Bit rate : 29 bps
Count of elements : 788
Stream size : 24.3 KiB (0%)
Language : Hungarian
Default : No
Forced : No
Text #10
ID : 14
Format : UTF-8
Codec ID : S_TEXT/UTF8
Codec ID/Info : UTF-8 Plain Text
Duration : 1h 52mn
Bit rate : 31 bps
Count of elements : 776
Stream size : 26.3 KiB (0%)
Language : Italian
Default : No
Forced : No
Text #11
ID : 15
Format : UTF-8
Codec ID : S_TEXT/UTF8
Codec ID/Info : UTF-8 Plain Text
Duration : 1h 53mn
Bit rate : 26 bps
Count of elements : 735
Stream size : 22.2 KiB (0%)
Language : Norwegian
Default : No
Forced : No
Text #12
ID : 16
Format : UTF-8
Codec ID : S_TEXT/UTF8
Codec ID/Info : UTF-8 Plain Text
Duration : 1h 53mn
Bit rate : 23 bps
Count of elements : 707
Stream size : 19.2 KiB (0%)
Language : Polish
Default : No
Forced : No
Text #13
ID : 17
Format : UTF-8
Codec ID : S_TEXT/UTF8
Codec ID/Info : UTF-8 Plain Text
Duration : 1h 53mn
Bit rate : 28 bps
Count of elements : 849
Stream size : 23.9 KiB (0%)
Title : Brazilian
Language : Portuguese
Default : No
Forced : No
Text #14
ID : 18
Format : UTF-8
Codec ID : S_TEXT/UTF8
Codec ID/Info : UTF-8 Plain Text
Duration : 1h 53mn
Bit rate : 27 bps
Count of elements : 729
Stream size : 22.7 KiB (0%)
Language : Romanian
Default : No
Forced : No
Text #15
ID : 19
Format : UTF-8
Codec ID : S_TEXT/UTF8
Codec ID/Info : UTF-8 Plain Text
Duration : 1h 52mn
Bit rate : 26 bps
Count of elements : 784
Stream size : 22.1 KiB (0%)
Language : Serbian
Default : No
Forced : No
Text #16
ID : 20
Format : UTF-8
Codec ID : S_TEXT/UTF8
Codec ID/Info : UTF-8 Plain Text
Duration : 1h 53mn
Bit rate : 28 bps
Count of elements : 789
Stream size : 24.0 KiB (0%)
Language : Slovak
Default : No
Forced : No
Text #17
ID : 21
Format : UTF-8
Codec ID : S_TEXT/UTF8
Codec ID/Info : UTF-8 Plain Text
Duration : 1h 53mn
Bit rate : 29 bps
Count of elements : 885
Stream size : 24.7 KiB (0%)
Title : Latin American
Language : Spanish
Default : No
Forced : No
Text #18
ID : 22
Format : UTF-8
Codec ID : S_TEXT/UTF8
Codec ID/Info : UTF-8 Plain Text
Duration : 1h 53mn
Bit rate : 27 bps
Count of elements : 740
Stream size : 23.2 KiB (0%)
Language : Swedish
Default : No
Forced : No
Text #19
ID : 23
Format : UTF-8
Codec ID : S_TEXT/UTF8
Codec ID/Info : UTF-8 Plain Text
Duration : 1h 53mn
Bit rate : 36 bps
Count of elements : 775
Stream size : 30.4 KiB (0%)
Language : Vietnamese
Default : No
Forced : No
Menu
00:00:00.000 : en:Space and Time
00:08:11.800 : en:Part One: Justine
00:15:21.520 : en:Wedding Toasts
00:24:07.880 : en:Trudging through This
00:33:28.399 : en:Never Say You're Sorry
00:41:41.039 : en:I Smile and I Smile
00:49:37.800 : en:Sit with Me for a Little While
00:58:39.960 : en:What Did You Expect?
01:06:04.000 : en:Part Two: Claire
01:12:34.760 : en:The Path of Melancholia
01:21:29.639 : en:Dance of Death
01:29:41.839 : en:Life on Earth Is Evil
01:38:37.360 : en:Just Breathe
01:46:11.520 : en:Where Are You Going?
01:54:37.519 : en:Beethoven's Ninth
02:04:08.640 : en:End Credits

x264

x264 [info]: frame I:1074  Avg QP:11.54  size:121285
x264 [info]: frame P:43320 Avg QP:12.87  size: 69278
x264 [info]: frame B:150384 Avg QP:14.13  size: 34819
x264 [info]: consecutive B-frames:  2.6%  4.0% 10.0% 13.6% 13.9% 41.7%  6.4%  1.2%  4.3%  2.4%

source vs encode




screens




Показать сообщения:    

Текущее время: 11-Дек 14:59

Часовой пояс: UTC + 3


Вы не можете начинать темы
Вы не можете отвечать на сообщения
Вы не можете редактировать свои сообщения
Вы не можете удалять свои сообщения
Вы не можете голосовать в опросах
Вы не можете прикреплять файлы к сообщениям
Вы не можете скачивать файлы