Джузеппе Верди - Двое Фоскари (Пласидо Доминго) / Giuseppe Verdi - I Due Foscari (Placido Domingo, Francesco Meli, Anna Pirozzi) (Michele Mariotti / Alvis Hermanis) [2016, Opera, HDTVRip-AVC 720p] Sub [Русские][Deutsch hardsub]


 

[Цитировать]

Оперный театр Ла Скала (сезон 15/16) представляет
ДЖУЗЕППЕ Фортунино Франческо ВЕРДИ
10 октября (October 10,) 1813 — 27 января (January 27,) 1901
»« ДВОЕ ФОСКАРИ »«
Либретто Франческо Марии Пьяве
по мотивам одноимённой трагедии Байрона (1821)

◄ ►
ГОД ЗАПИСИ: 24-02-2016
ЛЕЙБЛ: Teatro alla Scala & TV | СТРАНА: Italy
ЖАНР: Live Broadcast, Opera
ЯЗЫК: Итальянский | ПЕРЕВОД: Субтитры
СУБТИТРЫ: РУССКИЕ, Deutsch hardsub
ПРОДОЛЖИТЕЛЬНОСТЬ: 41'27" + 40'42" + 42'14"
ФРАНЧЕСКО ФОСКАРИ Пласидо ДОМИНГО Plácido Domingo [75 лет]
ЯКОПО ФОСКАРИ Франческо МЕЛИ Francesco Meli
ЛУКРЕЦИЯ Анна ПИРОЦЦИ Anna Pirozzi [ДЕБЮТ в Ла Скала]
ЛОРЕДАНО Андреа КОНЧЕТТИ Andrea Concetti
БАРБАРИГО Эдоардо МИЛЕТТИ Edoardo Milletti
ПИЗАНА Кьяра ИЗОТТОН Chiara Isotton
ХОР и ОРКЕСТР театра Ла Скала
ДИРИЖЁР Микеле МАРИОТТИ Michele Mariotti
РЕЖИССЁР Алвис ХЕРМАНИС Alvis Hermanis

КАЧЕСТВО ВИДЕО: HDTVRip-AVC
ИСХОДНИК: FullHD [Спасибо, Gino]
ФОРМАТ / КОНТЕЙНЕР: MKV
ВИДЕО ПОТОК: H.264, 1280x720, Variable, 25,000 fps.
АУДИО ПОТОК: Italian, MP2 384 kbps, 48,0 KHz, 2 ch original
PRIMA esecuzione 3 Novembre 1844, Roma, Teatro Argentina

MediaInfoPart1

-

x264.log


avs [info]: 1280x720p 1:1 @ 25/1 fps (cfr)
x264 [info]: using SAR=1/1
x264 [info]: using cpu capabilities: MMX2 SSE2Fast SSSE3 SSE4.2 AVX
x264 [info]: profile High, level 4.1
x264 [info]: frame I:344 Avg QP:15.47 size: 81341
x264 [info]: frame P:13673 Avg QP:17.06 size: 20964
x264 [info]: frame B:48178 Avg QP:19.90 size: 4520
x264 [info]: consecutive B-frames: 0.7% 0.4% 5.4% 44.1% 19.3% 26.7% 3.4%
x264 [info]: mb I I16..4: 5.3% 76.9% 17.8%
x264 [info]: mb P I16..4: 0.9% 3.9% 0.6% P16..4: 34.6% 34.1% 10.4% 0.0% 0.0% skip:15.4%
x264 [info]: mb B I16..4: 0.2% 0.4% 0.0% B16..8: 33.0% 12.9% 1.4% direct: 2.0% skip:50.2% L0:39.5% L1:50.4% BI:10.2%
x264 [info]: 8x8 transform intra:71.6% inter:53.5%
x264 [info]: coded y,uvDC,uvAC intra: 56.1% 65.4% 48.1% inter: 7.1% 10.5% 1.3%
x264 [info]: i16 v,h,dc,p: 73% 13% 5% 9%
x264 [info]: i8 v,h,dc,ddl,ddr,vr,hd,vl,hu: 11% 7% 27% 7% 8% 10% 8% 10% 11%
x264 [info]: i4 v,h,dc,ddl,ddr,vr,hd,vl,hu: 18% 9% 22% 7% 10% 11% 7% 9% 8%
x264 [info]: i8c dc,h,v,p: 30% 36% 23% 11%
x264 [info]: Weighted P-Frames: Y:2.5% UV:1.7%
x264 [info]: ref P L0: 50.9% 8.3% 20.2% 6.4% 5.5% 4.4% 4.1% 0.2% 0.0%
x264 [info]: ref B L0: 81.1% 11.1% 4.2% 1.9% 1.1% 0.6%
x264 [info]: ref B L1: 94.0% 6.0%
x264 [info]: kb/s:1711.93
-
General
Unique ID : 241161035678972023367573246181102790696 (0xB56DED0E8E56A401B7665A9FC6372828)
Complete name : Verdi - I due Foscari (La Scala, 2016)\I due Foscari (La Scala, 2016) Pt1.mkv
Format : Matroska
Format version : Version 4 / Version 2
File size : 622 MiB
Duration : 41mn 27s
Overall bit rate : 2 098 Kbps
Encoded date : UTC 2016-02-29 12:26:34
Writing application : mkvmerge v8.3.0 ('Over the Horizon') 32bit
Writing library : libebml v1.3.1 + libmatroska v1.4.2
Video
ID : 1
Format : AVC
Format/Info : Advanced Video Codec
Format profile : High@L4.1
Format settings, CABAC : Yes
Format settings, ReFrames : 7 frames
Codec ID : V_MPEG4/ISO/AVC
Duration : 41mn 27s
Bit rate : 1 672 Kbps
Width : 1 280 pixels
Height : 720 pixels
Display aspect ratio : 16:9
Frame rate mode : Constant
Frame rate : 25.000 fps
Color space : YUV
Chroma subsampling : 4:2:0
Bit depth : 8 bits
Scan type : Progressive
Bits/(Pixel*Frame) : 0.073
Stream size : 496 MiB (80%)
Writing library : x264 core 146 r2538 121396c
Encoding settings : cabac=1 / ref=7 / deblock=1:-3:-3 / analyse=0x3:0x113 / me=umh / subme=11 / psy=1 / psy_rd=1.05:0.15 / mixed_ref=1 / me_range=32 / chroma_me=1 / trellis=2 / 8x8dct=1 / cqm=0 / deadzone=21,11 / fast_pskip=1 / chroma_qp_offset=-3 / threads=3 / lookahead_threads=1 / sliced_threads=0 / nr=0 / decimate=1 / interlaced=0 / bluray_compat=0 / constrained_intra=0 / bframes=6 / b_pyramid=2 / b_adapt=2 / b_bias=0 / direct=1 / weightb=1 / open_gop=0 / weightp=2 / keyint=250 / keyint_min=25 / scenecut=40 / intra_refresh=0 / rc=crf / mbtree=0 / crf=20.0 / qcomp=0.65 / qpmin=0 / qpmax=69 / qpstep=4 / ip_ratio=1.40 / pb_ratio=1.30 / aq=1:0.90
Language : English
Default : Yes
Forced : No
Audio
ID : 2
Format : MPEG Audio
Format version : Version 1
Format profile : Layer 2
Codec ID : A_MPEG/L2
Codec ID/Hint : MP2
Duration : 41mn 27s
Bit rate mode : Constant
Bit rate : 384 Kbps
Channel(s) : 2 channels
Sampling rate : 48.0 KHz
Compression mode : Lossy
Delay relative to video : 22ms
Stream size : 114 MiB (18%)
Language : Italian
Default : Yes
Forced : No
Text
ID : 3
Format : ASS
Codec ID : S_TEXT/ASS
Codec ID/Info : Advanced Sub Station Alpha
Compression mode : Lossless
Language : Russian
Default : Yes
Forced : No

Part2

-

x264.log


avs [info]: 1280x720p 1:1 @ 25/1 fps (cfr)
x264 [info]: using SAR=1/1
x264 [warning]: DPB size (10 frames, 36000 mbs) > level limit (9 frames, 32768 mbs)
x264 [info]: using cpu capabilities: MMX2 SSE2Fast SSSE3 SSE4.2 AVX
x264 [info]: profile High, level 4.1
x264 [info]: frame I:355 Avg QP:15.55 size: 84907
x264 [info]: frame P:13543 Avg QP:17.04 size: 18658
x264 [info]: frame B:47170 Avg QP:19.70 size: 4468
x264 [info]: consecutive B-frames: 0.8% 0.4% 5.3% 47.8% 17.1% 25.4% 2.4% 0.5% 0.3% 0.1%
x264 [info]: mb I I16..4: 6.7% 72.0% 21.3%
x264 [info]: mb P I16..4: 1.3% 4.0% 0.9% P16..4: 32.8% 30.5% 10.1% 0.0% 0.0% skip:20.5%
x264 [info]: mb B I16..4: 0.3% 0.6% 0.1% B16..8: 32.5% 12.5% 1.4% direct: 1.9% skip:50.8% L0:41.8% L1:48.9% BI: 9.4%
x264 [info]: 8x8 transform intra:66.2% inter:56.1%
x264 [info]: coded y,uvDC,uvAC intra: 48.4% 58.9% 39.9% inter: 6.2% 8.4% 0.9%
x264 [info]: i16 v,h,dc,p: 81% 9% 5% 5%
x264 [info]: i8 v,h,dc,ddl,ddr,vr,hd,vl,hu: 11% 7% 33% 6% 8% 9% 7% 9% 9%
x264 [info]: i4 v,h,dc,ddl,ddr,vr,hd,vl,hu: 16% 8% 28% 6% 10% 10% 7% 8% 7%
x264 [info]: i8c dc,h,v,p: 27% 41% 22% 10%
x264 [info]: Weighted P-Frames: Y:1.4% UV:0.7%
x264 [info]: ref P L0: 48.5% 8.8% 17.9% 5.9% 5.1% 4.1% 3.6% 2.0% 1.9% 2.0% 0.1% 0.0%
x264 [info]: ref B L0: 74.5% 11.7% 5.1% 2.5% 1.9% 1.7% 1.4% 0.6% 0.4%
x264 [info]: ref B L1: 93.2% 6.8%
x264 [info]: kb/s:1616.43
-
General
Unique ID : 254610947572747060295872594618113030016 (0xBF8C48E94D7BBA6AA3F0B24E92477780)
Complete name : Verdi - I due Foscari (La Scala, 2016)\I due Foscari (La Scala, 2016) Pt2.mkv
Format : Matroska
Format version : Version 4 / Version 2
File size : 583 MiB
Duration : 40mn 42s
Overall bit rate : 2 002 Kbps
Encoded date : UTC 2016-02-29 10:48:16
Writing application : mkvmerge v8.3.0 ('Over the Horizon') 32bit
Writing library : libebml v1.3.1 + libmatroska v1.4.2
Video
ID : 1
Format : AVC
Format/Info : Advanced Video Codec
Format profile : High@L4.1
Format settings, CABAC : Yes
Format settings, ReFrames : 10 frames
Codec ID : V_MPEG4/ISO/AVC
Duration : 40mn 42s
Bit rate : 1 578 Kbps
Width : 1 280 pixels
Height : 720 pixels
Display aspect ratio : 16:9
Frame rate mode : Constant
Frame rate : 25.000 fps
Color space : YUV
Chroma subsampling : 4:2:0
Bit depth : 8 bits
Scan type : Progressive
Bits/(Pixel*Frame) : 0.069
Stream size : 460 MiB (79%)
Writing library : x264 core 146 r2538 121396c
Encoding settings : cabac=1 / ref=10 / deblock=1:-3:-3 / analyse=0x3:0x113 / me=umh / subme=11 / psy=1 / psy_rd=1.05:0.15 / mixed_ref=1 / me_range=32 / chroma_me=1 / trellis=2 / 8x8dct=1 / cqm=0 / deadzone=21,11 / fast_pskip=1 / chroma_qp_offset=-3 / threads=3 / lookahead_threads=1 / sliced_threads=0 / nr=0 / decimate=1 / interlaced=0 / bluray_compat=0 / constrained_intra=0 / bframes=9 / b_pyramid=2 / b_adapt=2 / b_bias=0 / direct=1 / weightb=1 / open_gop=0 / weightp=2 / keyint=250 / keyint_min=25 / scenecut=40 / intra_refresh=0 / rc=crf / mbtree=0 / crf=20.0 / qcomp=0.65 / qpmin=0 / qpmax=69 / qpstep=4 / ip_ratio=1.40 / pb_ratio=1.30 / aq=1:0.90
Language : English
Default : Yes
Forced : No
Audio
ID : 2
Format : MPEG Audio
Format version : Version 1
Format profile : Layer 2
Codec ID : A_MPEG/L2
Codec ID/Hint : MP2
Duration : 40mn 42s
Bit rate mode : Constant
Bit rate : 384 Kbps
Channel(s) : 2 channels
Sampling rate : 48.0 KHz
Compression mode : Lossy
Delay relative to video : 22ms
Stream size : 112 MiB (19%)
Language : Italian
Default : Yes
Forced : No
Text
ID : 3
Format : ASS
Codec ID : S_TEXT/ASS
Codec ID/Info : Advanced Sub Station Alpha
Compression mode : Lossless
Language : Russian
Default : Yes
Forced : No

Part3

-

x264.log


avs [info]: 1280x720p 1:1 @ 25/1 fps (cfr)
x264 [info]: using SAR=1/1
x264 [info]: using cpu capabilities: MMX2 SSE2Fast SSSE3 SSE4.2 AVX
x264 [info]: profile High, level 4.1
x264 [info]: frame I:354 Avg QP:16.14 size: 89384
x264 [info]: frame P:14956 Avg QP:17.40 size: 24114
x264 [info]: frame B:48042 Avg QP:20.22 size: 5975
x264 [info]: consecutive B-frames: 1.3% 1.3% 8.1% 49.3% 17.4% 20.7% 1.5% 0.3% 0.1%
x264 [info]: mb I I16..4: 6.5% 72.3% 21.2%
x264 [info]: mb P I16..4: 1.6% 6.5% 1.3% P16..4: 32.2% 31.2% 10.5% 0.0% 0.0% skip:16.7%
x264 [info]: mb B I16..4: 0.3% 0.8% 0.1% B16..8: 32.0% 14.1% 1.9% direct: 2.4% skip:48.3% L0:39.6% L1:48.7% BI:11.7%
x264 [info]: 8x8 transform intra:69.3% inter:58.4%
x264 [info]: coded y,uvDC,uvAC intra: 53.0% 69.1% 52.8% inter: 8.9% 12.4% 2.0%
x264 [info]: i16 v,h,dc,p: 76% 9% 5% 9%
x264 [info]: i8 v,h,dc,ddl,ddr,vr,hd,vl,hu: 14% 6% 28% 6% 8% 11% 7% 11% 9%
x264 [info]: i4 v,h,dc,ddl,ddr,vr,hd,vl,hu: 20% 7% 23% 6% 9% 11% 7% 9% 7%
x264 [info]: i8c dc,h,v,p: 28% 32% 26% 13%
x264 [info]: Weighted P-Frames: Y:2.6% UV:1.8%
x264 [info]: ref P L0: 50.7% 9.0% 18.6% 6.0% 5.1% 4.1% 3.7% 2.4% 0.3% 0.0%
x264 [info]: ref B L0: 78.4% 11.1% 4.7% 2.3% 1.8% 1.1% 0.6%
x264 [info]: ref B L1: 94.0% 6.0%
x264 [info]: kb/s:2144.73
-
General
Unique ID : 170387639548524582305102561431202862575 (0x802F773929DD0C3D92A73030846495EF)
Complete name : Verdi - I due Foscari (La Scala, 2016)\I due Foscari (La Scala, 2016) Pt3.mkv
Format : Matroska
Format version : Version 4 / Version 2
File size : 764 MiB
Duration : 42mn 14s
Overall bit rate : 2 531 Kbps
Encoded date : UTC 2016-02-29 16:41:00
Writing application : mkvmerge v8.3.0 ('Over the Horizon') 32bit
Writing library : libebml v1.3.1 + libmatroska v1.4.2
Video
ID : 1
Format : AVC
Format/Info : Advanced Video Codec
Format profile : High@L4.1
Format settings, CABAC : Yes
Format settings, ReFrames : 8 frames
Codec ID : V_MPEG4/ISO/AVC
Duration : 42mn 14s
Bit rate : 2 096 Kbps
Width : 1 280 pixels
Height : 720 pixels
Display aspect ratio : 16:9
Frame rate mode : Constant
Frame rate : 25.000 fps
Color space : YUV
Chroma subsampling : 4:2:0
Bit depth : 8 bits
Scan type : Progressive
Bits/(Pixel*Frame) : 0.091
Stream size : 633 MiB (83%)
Writing library : x264 core 146 r2538 121396c
Encoding settings : cabac=1 / ref=8 / deblock=1:-3:-3 / analyse=0x3:0x113 / me=umh / subme=11 / psy=1 / psy_rd=1.05:0.15 / mixed_ref=1 / me_range=32 / chroma_me=1 / trellis=2 / 8x8dct=1 / cqm=0 / deadzone=21,11 / fast_pskip=1 / chroma_qp_offset=-3 / threads=3 / lookahead_threads=1 / sliced_threads=0 / nr=0 / decimate=1 / interlaced=0 / bluray_compat=0 / constrained_intra=0 / bframes=8 / b_pyramid=2 / b_adapt=2 / b_bias=0 / direct=1 / weightb=1 / open_gop=0 / weightp=2 / keyint=250 / keyint_min=25 / scenecut=40 / intra_refresh=0 / rc=crf / mbtree=0 / crf=20.0 / qcomp=0.65 / qpmin=0 / qpmax=69 / qpstep=4 / ip_ratio=1.40 / pb_ratio=1.30 / aq=1:0.90
Language : English
Default : Yes
Forced : No
Audio
ID : 2
Format : MPEG Audio
Format version : Version 1
Format profile : Layer 2
Codec ID : A_MPEG/L2
Codec ID/Hint : MP2
Duration : 42mn 14s
Bit rate mode : Constant
Bit rate : 384 Kbps
Channel(s) : 2 channels
Sampling rate : 48.0 KHz
Compression mode : Lossy
Delay relative to video : 14ms
Stream size : 116 MiB (15%)
Language : Italian
Default : Yes
Forced : No
Text
ID : 3
Format : ASS
Codec ID : S_TEXT/ASS
Codec ID/Info : Advanced Sub Station Alpha
Compression mode : Lossless
Language : Russian
Default : Yes
Forced : No



Показать сообщения:    

Текущее время: 10-Дек 17:43

Часовой пояс: UTC + 3


Вы не можете начинать темы
Вы не можете отвечать на сообщения
Вы не можете редактировать свои сообщения
Вы не можете удалять свои сообщения
Вы не можете голосовать в опросах
Вы не можете прикреплять файлы к сообщениям
Вы не можете скачивать файлы