(Classical) Joshua Rifkin - The Baroque Beatles Book [1965] - 2009, FLAC (image+.cue) lossless


 

[Цитировать]

Joshua Rifkin - The Baroque Beatles Book [1965]
Жанр: Classical
Страна-производитель диска: USA
Год издания диска: 2009
Издатель (лейбл): NONSUCH Records inc.
Номер по каталогу: 517948-2
Аудиокодек: FLAC
Тип рипа: image+.cue
Битрейт аудио: lossless
Продолжительность: 0:35:31
Источник: собственный рип
Наличие сканов в содержимом раздачи: да
Треклист:
Track listing
The Royale Beatleworks Musique, MBE 1963
1.Overture: I Want to Hold Your Hand and "You're Gonna Lose that Girl"- 6:03
2.Réjouissance: I'll Cry Instead - 1:53
3.La Paix: Things We Said Today - 2:03
4.L'Amour s'en cachant: You've Got to Hide Your Love Away - 2:07
5. Les Plaisirs: Ticket to Ride - 2:21
Epstein Variations, MBE 69A
6.Hold Me Tight - 4:15
"Last Night I Said," Cantata for the Third Sunday after the Shea Stadium, MBE 58,000
7.Chorus: "Last Night I Said" (Please Please Me) - 5:51
8.Tenor (Helpentenor)Recitative: "In they came jorking" - 1:51
9. Aria: "When I Was Younger" (Help!) - 3:48
10.Chorale: "You know, if you break my heart" (I'll Be Back) - 1:42
Trio Sonata, Das Kaferlein, MBE 004 1/4
11.Grave-Allegro-Grave: Eight Days a Week - 2:28
12.Quodlibet: She Loves You/Thank You Girl/Hard Day's Night - 1:13
Исполнители:
Conducted by Joshua Rifkin

Лог создания рипа

Exact Audio Copy V1.1 from 23. June 2015
EAC extraction logfile from 26. February 2016, 18:03
Joshua Rifkin / The Baroque Beatles Book
Used drive : HL-DT-STDVDRAM GA31N Adapter: 0 ID: 0
Read mode : Secure
Utilize accurate stream : Yes
Defeat audio cache : Yes
Make use of C2 pointers : No
Read offset correction : 103
Overread into Lead-In and Lead-Out : No
Fill up missing offset samples with silence : Yes
Delete leading and trailing silent blocks : No
Null samples used in CRC calculations : Yes
Used interface : Installed external ASPI interface
Used output format : User Defined Encoder
Selected bitrate : 128 kBit/s
Quality : High
Add ID3 tag : Yes
Command line compressor : C:\Program Files\Exact Audio Copy\Flac\flac.exe
Additional command line options : -V -8 -T "Date=%year%" -T "Genre=%genre%" %source%
TOC of the extracted CD
Track | Start | Length | Start sector | End sector
---------------------------------------------------------
1 | 0:00.00 | 6:03.60 | 0 | 27284
2 | 6:03.60 | 1:54.01 | 27285 | 35835
3 | 7:57.61 | 2:03.54 | 35836 | 45114
4 | 10:01.40 | 2:06.44 | 45115 | 54608
5 | 12:08.09 | 2:21.32 | 54609 | 65215
6 | 14:29.41 | 4:16.54 | 65216 | 84469
7 | 18:46.20 | 5:52.17 | 84470 | 110886
8 | 24:38.37 | 1:51.05 | 110887 | 119216
9 | 26:29.42 | 3:42.43 | 119217 | 135909
10 | 30:12.10 | 1:42.38 | 135910 | 143597
11 | 31:54.48 | 2:28.25 | 143598 | 154722
12 | 34:22.73 | 1:13.73 | 154723 | 160270
Range status and errors
Selected range
Filename C:\Users\ПК\Desktop\Joshua Rifkin\Joshua Rifkin - The Baroque Beatles Book.wav
Peak level 98.8 %
Extraction speed 4.2 X
Range quality 100.0 %
Test CRC 6A241343
Copy CRC 6A241343
Copy OK
No errors occurred
AccurateRip summary
Track 1 accurately ripped (confidence 3) [CAC4CB9B] (AR v2)
Track 2 accurately ripped (confidence 3) [036D01C8] (AR v2)
Track 3 accurately ripped (confidence 3) [8DC156C0] (AR v2)
Track 4 accurately ripped (confidence 3) [330E6227] (AR v2)
Track 5 accurately ripped (confidence 3) [5F01D2D7] (AR v2)
Track 6 accurately ripped (confidence 3) [0BF10205] (AR v2)
Track 7 accurately ripped (confidence 3) [6949A4BA] (AR v2)
Track 8 accurately ripped (confidence 3) [452198C3] (AR v2)
Track 9 accurately ripped (confidence 3) [9C61959A] (AR v2)
Track 10 accurately ripped (confidence 3) [A5FE90D8] (AR v2)
Track 11 accurately ripped (confidence 3) [C250B95C] (AR v2)
Track 12 accurately ripped (confidence 3) [9BA44CC0] (AR v2)
All tracks accurately ripped
End of status report
==== Log checksum E801BF7865FA30603CCFE7132B6274E7DB4805094E12F36558BC042BB8263A60 ====

Содержание индексной карты (.CUE)

REM DISCID 9B08580C
REM COMMENT "ExactAudioCopy v1.1"
PERFORMER "Joshua Rifkin"
TITLE "The Baroque Beatles Book"
FILE "Joshua Rifkin - The Baroque Beatles Book.flac" WAVE
TRACK 01 AUDIO
TITLE "Ouverture (I Want to Hold Your Hand) - Joshua Rifkin"
PERFORMER "Joshua Rifkin"
INDEX 01 00:00:00
TRACK 02 AUDIO
TITLE "Rejouissance (I'll Cry Instead) - Joshua Rifkin"
PERFORMER "Joshua Rifkin"
INDEX 01 06:03:60
TRACK 03 AUDIO
TITLE "La Paix (Things We Said Today) - Joshua Rifkin"
PERFORMER "Joshua Rifkin"
INDEX 01 07:57:61
TRACK 04 AUDIO
TITLE "L'Amour s'en cachant (You've Got to Hide Your Love Away) - Joshua Rifkin"
PERFORMER "Joshua Rifkin"
INDEX 01 10:01:40
TRACK 05 AUDIO
TITLE "Les Plaisirs (Ticket to Ride) - Joshua Rifkin"
PERFORMER "Joshua Rifkin"
INDEX 01 12:08:09
TRACK 06 AUDIO
TITLE "Epstein Variations, MBE 69A (Hold Me Tight) - Joshua Rifkin"
PERFORMER "Joshua Rifkin"
INDEX 01 14:29:41
TRACK 07 AUDIO
TITLE "Chorus: 'Last Night I Said' (Please, Please Me) - Joshua Rifkin"
PERFORMER "Joshua Rifkin"
INDEX 01 18:46:20
TRACK 08 AUDIO
TITLE "Recitative: 'In They Came Jorking' - Joshua Rifkin"
PERFORMER "Joshua Rifkin"
INDEX 01 24:38:37
TRACK 09 AUDIO
TITLE "Aria: 'When I Was Younger' (Help!) - Joshua Rifkin"
PERFORMER "Joshua Rifkin"
INDEX 01 26:29:42
TRACK 10 AUDIO
TITLE "Chorale: 'You Know, If You Break My Heart' (I'll Be Back) - Joshua Rifkin"
PERFORMER "Joshua Rifkin"
INDEX 01 30:12:10
TRACK 11 AUDIO
TITLE "Grave-Allegro-Grave (Eight Days a Week) - Joshua Rifkin"
PERFORMER "Joshua Rifkin"
INDEX 01 31:54:48
TRACK 12 AUDIO
TITLE "Quodlibette (She Loves You / Thank You Girl / Hard Day's Night) - Joshua Rifkin"
PERFORMER "Joshua Rifkin"
INDEX 01 34:22:73



Показать сообщения:    

Текущее время: 08-Дек 19:10

Часовой пояс: UTC + 3


Вы не можете начинать темы
Вы не можете отвечать на сообщения
Вы не можете редактировать свои сообщения
Вы не можете удалять свои сообщения
Вы не можете голосовать в опросах
Вы не можете прикреплять файлы к сообщениям
Вы не можете скачивать файлы