(Classical, 20th century) John Cage - Piano Concerto; Credo in Us; Imaginary Landscape No.1; Rozart Mix - Hermann Danuser, Ensemble Musica Negativa, Rainer Riehn - 2008, FLAC (image+.cue) lossless


Статистика раздачи [Обновить пиров]
Размер:  353 MB   |    Зарегистрирован:  8 месяцев 13 дней   |    Скачан:  1 раз

Полного источника не было: 3 месяца 20 дней

 
   
 
 
 

[Цитировать]

John Cage - Piano Concerto; Credo in Us; Imaginary Landscape No.1; Rozart Mix - Hermann Danuser, Ensemble Musica Negativa, Rainer Riehn
Жанр: Classical, 20th century
Страна-производитель диска: UK
Год издания диска: 2008
Издатель (лейбл): EMI
Дата записи: 1971, 1973
Аудиокодек: FLAC
Тип рипа: image+.cue
Битрейт аудио: lossless
Продолжительность: 71:15
Источник: собственный рип
Наличие сканов в содержимом раздачи: да
Треклист:
John Cage (1912-1992)
[1] Credo in Us
Burkhard Wissemann, Michael Dietz percussion
Christoph Keller piano
Johann-Nikolaus Matthes turntables (phonograph), electronics (radio)
Rainer Riehn
[2] Imaginary Landscape No.1
Michael Dietz percussion
Christoph Keller piano
Johann-Nikolaus Matthes turntables (frequency recordings)
Rainer Riehn
[3] Concerto for Piano and Orchestra with
Solo for Voice 1 and Solo for Voice 2
Hermann Danuser piano
Bell Imhoff, Doris Sandrock voices
Ensemble Musica Negativa
Rainer Riehn

[4] Rozart Mix
Members of the Ensemble Musica Negativa
[5] Music for Amplified Toy Pianos
[6]-[8] Music for Carillon
Gentle Fire
Исполнители:
Burkhard Wissemann, Michael Dietz percussion
Christoph Keller piano
Johann-Nikolaus Matthes turntables (phonograph), electronics (radio)
Christoph Keller piano
Hermann Danuser piano
Bell Imhoff, Doris Sandrock voices
Ensemble Musica Negativa
Rainer Riehn

Gentle Fire

Лог создания рипа

Exact Audio Copy V1.0 beta 3 from 29. August 2011
EAC extraction logfile from 11. June 2015, 1:36
- / Cage - Concert for Piano and Orchestra etc.
Used drive : HL-DT-STDVDRAM GU70N Adapter: 0 ID: 0
Read mode : Secure
Utilize accurate stream : Yes
Defeat audio cache : Yes
Make use of C2 pointers : No
Read offset correction : 48
Overread into Lead-In and Lead-Out : No
Fill up missing offset samples with silence : Yes
Delete leading and trailing silent blocks : No
Null samples used in CRC calculations : Yes
Used interface : Native Win32 interface for Win NT & 2000
Used output format : User Defined Encoder
Selected bitrate : 128 kBit/s
Quality : High
Add ID3 tag : No
Command line compressor : C:\Program Files (x86)\Exact Audio Copy\Flac\flac.exe
Additional command line options : -V -8 -T "Date=%year%" -T "Genre=%genre%" %source%
TOC of the extracted CD
Track | Start | Length | Start sector | End sector
---------------------------------------------------------
1 | 0:00.00 | 16:11.56 | 0 | 72880
2 | 16:11.56 | 7:34.03 | 72881 | 106933
3 | 23:45.59 | 18:05.72 | 106934 | 188380
4 | 41:51.56 | 7:19.52 | 188381 | 221357
5 | 49:11.33 | 12:02.61 | 221358 | 275568
6 | 61:14.19 | 7:00.26 | 275569 | 307094
7 | 68:14.45 | 1:29.51 | 307095 | 313820
8 | 69:44.21 | 1:30.46 | 313821 | 320616
Range status and errors
Selected range
Filename C:\temp\Cage - Piano Concerto; Credo in Us; Imaginary Landscape No.1\Cage - Concert for Piano and Orchestra etc.wav
Peak level 99.9 %
Extraction speed 5.4 X
Range quality 100.0 %
Test CRC 614BD8AF
Copy CRC 614BD8AF
Copy OK
No errors occurred
AccurateRip summary
Track 1 accurately ripped (confidence 3) [61F125E1] (AR v2)
Track 2 accurately ripped (confidence 3) [ED5DFDAB] (AR v2)
Track 3 accurately ripped (confidence 3) [EEA0C0B1] (AR v2)
Track 4 accurately ripped (confidence 3) [290CB533] (AR v2)
Track 5 accurately ripped (confidence 3) [258C8370] (AR v2)
Track 6 accurately ripped (confidence 3) [8CE4EB2B] (AR v2)
Track 7 accurately ripped (confidence 3) [731ADDE1] (AR v2)
Track 8 accurately ripped (confidence 3) [765F7222] (AR v2)
All tracks accurately ripped
End of status report
==== Log checksum 7BAC08055918B761C43F2CC5C8AFC73D1AFE920887A1E39C39835C298F4B0B4D ====
[teatrix.ru].t23156.torrent 
Торрент: Зарегистрирован [ 2016-03-21 00:32 ] · 3454121C4D8569338C01068D67027269D08064DF

Скачать .torrent

Скачать

29 KB

Статус: проверено
Скачан: 1 раз
Размер: 353 MB
terms.php



Быстрый ответ

Имя:

      
Для отправки сообщений необходимо включить JavaScript
Показать сообщения:    

Текущее время: 03-Дек 16:45

Часовой пояс: UTC + 3


Вы можете начинать темы
Вы можете отвечать на сообщения
Вы не можете редактировать свои сообщения
Вы не можете удалять свои сообщения
Вы не можете голосовать в опросах
Вы не можете прикреплять файлы к сообщениям
Вы можете скачивать файлы