(Classical/Minimalism) Henryk Mikolaj Gorecki - Symphony No.4 'Tansman Episodes' (Андрей Борейко) - 2016, FLAC (image+.cue) lossless


 

[Цитировать]

Henryk Mikołaj Górecki - Symphony No.4 'Tansman Episodes'
Жанр: Classical/Minimalism
Страна-производитель диска: USA
Год издания диска: 2016
Издатель (лейбл): Nonesuch Records
Номер по каталогу: 549570-2
Дата записи: 12.IV.2014
Аудиокодек: FLAC
Тип рипа: image+.cue
Битрейт аудио: lossless
Продолжительность: 35'45"
Источник: собственный рип
Наличие сканов в содержимом раздачи: да
Треклист:
1. Deciso - Marcatissimo ma ben tenuto
2. Largo-ben tenuto - Marcatissimo
3. Deciso-Marcatissimo - Tranquillo e Cantabile
4. Allegro Marcato - Giocosa - Deciso - Marcatissimo ma ben tenuto
Исполнители:
London Philharmonic Orchestra
Андрей Борейко

Лог создания рипа

Exact Audio Copy V1.0 beta 1 from 15. November 2010
EAC extraction logfile from 29. February 2016, 20:23
Henryk Gorecki / Symphony No.4, Op.85 (Tansman Episodes)
Used drive : Optiarc DVD RW AD-7203A Adapter: 4 ID: 1
Read mode : Secure
Utilize accurate stream : Yes
Defeat audio cache : Yes
Make use of C2 pointers : No
Read offset correction : 48
Overread into Lead-In and Lead-Out : No
Fill up missing offset samples with silence : Yes
Delete leading and trailing silent blocks : No
Null samples used in CRC calculations : Yes
Used interface : Native Win32 interface for Win NT & 2000
Used output format : User Defined Encoder
Selected bitrate : 128 kBit/s
Quality : High
Add ID3 tag : No
Command line compressor : C:\Program Files\FLAC\flac.exe
Additional command line options : -T "COMMENT=Ripped by GFox" -8 -V %s
TOC of the extracted CD
Track | Start | Length | Start sector | End sector
---------------------------------------------------------
1 | 0:00.00 | 4:46.02 | 0 | 21451
2 | 4:46.02 | 8:57.24 | 21452 | 61750
3 | 13:43.26 | 11:42.65 | 61751 | 114465
4 | 25:26.16 | 10:18.59 | 114466 | 160874
Range status and errors
Selected range
Filename D:\EAC\Henryk Gorecki - Symphony No.4, Op.85 (Tansman Episodes).wav
Peak level 99.0 %
Extraction speed 1.0 X
Range quality 100.0 %
Test CRC 136853E2
Copy CRC 136853E2
Copy OK
No errors occurred
AccurateRip summary
Track 1 accurately ripped (confidence 1) [0CB69EFA]
Track 2 accurately ripped (confidence 1) [54645888]
Track 3 accurately ripped (confidence 1) [BD17A757]
Track 4 accurately ripped (confidence 1) [3A39C655]
All tracks accurately ripped
End of status report
==== Log checksum 284257DB1C378B4696053819DB2C182B5844DF5DBF30132AAAA6CFA04F0188AF ====
-Доп. информация: Долгожданная Четвертая симфония Гурецкого должна была увидеть свет ещё в 2010 году. Работу над ней прервала смерть композитора. Оркестровку написанной в ключе радикально-минималистских Клавесинного концерта, Концерта-кантаты и Kleines Requiem симфонии в 2014 году завершил сын композитора Миколай Гурецкий. Симфония посвящена памяти польского композитора Александра Тансмана.-



Показать сообщения:    

Текущее время: 04-Дек 06:53

Часовой пояс: UTC + 3


Вы не можете начинать темы
Вы не можете отвечать на сообщения
Вы не можете редактировать свои сообщения
Вы не можете удалять свои сообщения
Вы не можете голосовать в опросах
Вы не можете прикреплять файлы к сообщениям
Вы не можете скачивать файлы