(Opera, electronic) Karlheinz Stockhausen - Donnerstag aus Licht \ Thursday from Light \ Четверг из Света - 1984, FLAC (image+.cue) lossless


 

[Цитировать]

STOCKHAUSEN
DONNERSTAG aus LICHT
- Жанр: Opera, electronic
Страна-производитель диска: Germany
Год издания диска: 1984
Издатель (лейбл): DGG
Дата записи: 1981-83
Аудиокодек: FLAC
Тип рипа: image+.cue
Битрейт аудио: lossless
Продолжительность: 3:31'01''
Источник: собственный рип
Наличие сканов в содержимом раздачи: да (только обложки)
Треклист:

CD1

DONNESRAGS-GRUSS:
[01] MICHAELs-GRUSS I
[02] MICHAELs-GRUSS II
[03] MICHAELs-GRUSS III
Akt I - MICHAELs JUGEND:
1. Szene
[04] KINDHEIT: ERÖFFNUNG
[05] KINDHEIT I
[06] KINDHEIT II
[07] KINDHEIT III
[08] KINDHEIT IV
[09] KINDHEIT V
[10] KINDHEIT VI
2. Szene
[11] MONDEVA
3. Szene - EXAMEN
[12] EXAMEN 1: Anfang
[13] Stadium I
[14] Stadium II
[15] Stadium III
[16] Stadium IV
[17] Stadium V
[18] Stadium VI
[19] Stadium VII
[20] EXAMEN 2: Anfang
[21] Stadium I
[22] Stadium II
[23] Stadium III
[24] Stadium IV
[25] Stadium V
[26] Stadium VI
[27] Stadium VII
[28] EXAMEN 3: Stadium I
[29] Stadium II
[30] Stadium III
[31] Stadium IV
[32] Stadium V
[33] Stadium VI
[34] Stadium VII

Лог создания рипа

Exact Audio Copy V1.0 beta 4 from 7. December 2014
EAC extraction logfile from 21. November 2015, 18:48
Stockhausen, Karlheinz / Donnerstag aus Licht Cd1-4
Used drive : PHILIPS PCRW804 Adapter: 1 ID: 1
Read mode : Secure
Utilize accurate stream : Yes
Defeat audio cache : Yes
Make use of C2 pointers : No
Read offset correction : -436
Overread into Lead-In and Lead-Out : No
Fill up missing offset samples with silence : Yes
Delete leading and trailing silent blocks : No
Null samples used in CRC calculations : Yes
Used interface : Native Win32 interface for Win NT & 2000
Used output format : User Defined Encoder
Selected bitrate : 1024 kBit/s
Quality : High
Add ID3 tag : No
Command line compressor : C:\Program Files (x86)\FLAC\flac.exe
Additional command line options : -T "COMMENT=rip by el coronel" -8 -V %source%
TOC of the extracted CD
Track | Start | Length | Start sector | End sector
---------------------------------------------------------
1 | 0:00.33 | 3:13.07 | 33 | 14514
2 | 3:13.40 | 5:40.20 | 14515 | 40034
3 | 8:53.60 | 2:47.48 | 40035 | 52607
4 | 11:41.33 | 3:44.42 | 52608 | 69449
5 | 15:26.00 | 3:52.28 | 69450 | 86877
6 | 19:18.28 | 1:32.22 | 86878 | 93799
7 | 20:50.50 | 1:38.50 | 93800 | 101199
8 | 22:29.25 | 6:18.50 | 101200 | 129599
9 | 28:48.00 | 2:30.73 | 129600 | 140922
10 | 31:18.73 | 9:29.40 | 140923 | 183637
11 | 40:48.38 | 12:42.52 | 183638 | 240839
12 | 53:31.15 | 0:30.60 | 240840 | 243149
13 | 54:02.00 | 1:11.60 | 243150 | 248534
14 | 55:13.60 | 0:44.43 | 248535 | 251877
15 | 55:58.28 | 0:40.65 | 251878 | 254942
16 | 56:39.18 | 0:57.40 | 254943 | 259257
17 | 57:36.58 | 0:59.45 | 259258 | 263727
18 | 58:36.28 | 0:51.57 | 263728 | 267609
19 | 59:28.10 | 1:41.48 | 267610 | 275232
20 | 61:09.58 | 0:04.10 | 275233 | 275542
21 | 61:13.68 | 0:23.50 | 275543 | 277317
22 | 61:37.43 | 0:19.22 | 277318 | 278764
23 | 61:56.65 | 0:17.35 | 278765 | 280074
24 | 62:14.25 | 0:23.43 | 280075 | 281842
25 | 62:37.68 | 0:23.05 | 281843 | 283572
26 | 63:00.73 | 0:23.72 | 283573 | 285369
27 | 63:24.70 | 0:37.48 | 285370 | 288192
28 | 64:02.43 | 1:34.35 | 288193 | 295277
29 | 65:37.03 | 0:53.70 | 295278 | 299322
30 | 66:30.73 | 0:52.12 | 299323 | 303234
31 | 67:23.10 | 1:25.00 | 303235 | 309609
32 | 68:48.10 | 1:18.68 | 309610 | 315527
33 | 70:07.03 | 1:11.35 | 315528 | 320887
34 | 71:18.38 | 2:44.70 | 320888 | 333257
Range status and errors
Selected range
Filename F:\Music\Stockhausen - Donnerstag aus Licht\CD 1\CD1.wav
Peak level 93.9 %
Extraction speed 2.1 X
Range quality 99.9 %
Test CRC E1AF32BA
Copy CRC E1AF32BA
Copy OK
No errors occurred
AccurateRip summary
Track 1 accurately ripped (confidence 2) [D716E935] (AR v2)
Track 2 accurately ripped (confidence 2) [4761117C] (AR v2)
Track 3 accurately ripped (confidence 2) [0CF205A1] (AR v2)
Track 4 accurately ripped (confidence 2) [89AFD57A] (AR v2)
Track 5 accurately ripped (confidence 2) [4AA8C04B] (AR v2)
Track 6 accurately ripped (confidence 2) [258BFD91] (AR v2)
Track 7 accurately ripped (confidence 2) [9B960631] (AR v2)
Track 8 accurately ripped (confidence 2) [0F557FF8] (AR v2)
Track 9 accurately ripped (confidence 2) [D4889EB3] (AR v2)
Track 10 accurately ripped (confidence 2) [FC15261A] (AR v2)
Track 11 accurately ripped (confidence 2) [F14D8848] (AR v2)
Track 12 accurately ripped (confidence 2) [9BCDE2EA] (AR v2)
Track 13 accurately ripped (confidence 2) [C4D9BB12] (AR v2)
Track 14 accurately ripped (confidence 2) [BFA33BC0] (AR v2)
Track 15 accurately ripped (confidence 2) [295C6CA3] (AR v2)
Track 16 accurately ripped (confidence 2) [721A26C2] (AR v2)
Track 17 accurately ripped (confidence 2) [1DBD9CC2] (AR v2)
Track 18 accurately ripped (confidence 2) [A640D6CC] (AR v2)
Track 19 accurately ripped (confidence 2) [EF20D343] (AR v2)
Track 20 not present in database
Track 21 accurately ripped (confidence 2) [DC047E69] (AR v2)
Track 22 accurately ripped (confidence 2) [70E8296F] (AR v2)
Track 23 accurately ripped (confidence 2) [E3C3927E] (AR v2)
Track 24 accurately ripped (confidence 2) [CA8294AB] (AR v2)
Track 25 accurately ripped (confidence 2) [0506CCBD] (AR v2)
Track 26 accurately ripped (confidence 2) [115C8BD2] (AR v2)
Track 27 accurately ripped (confidence 3) [C4342F82] (AR v1)
Track 28 accurately ripped (confidence 2) [4583BC89] (AR v2)
Track 29 accurately ripped (confidence 2) [0CB5F622] (AR v2)
Track 30 accurately ripped (confidence 2) [32F672AF] (AR v2)
Track 31 accurately ripped (confidence 2) [303553BE] (AR v2)
Track 32 accurately ripped (confidence 2) [E1E1B319] (AR v2)
Track 33 accurately ripped (confidence 2) [3B8C44E3] (AR v2)
Track 34 accurately ripped (confidence 2) [5375CFF4] (AR v2)
33 трек(и) скопированы точно
1 трек(и) не содержатся в базе AccurateRip
Some tracks could not be verified as accurate
End of status report
---- CUETools DB Plugin V2.1.4
[CTDB TOCID: MfYdTDvFfgoXf.3bXF6LD2EAxFY-] found
Submit result: MfYdTDvFfgoXf.3bXF6LD2EAxFY- has been confirmed
Track | CTDB Status
1 | (1/1) Accurately ripped
2 | (1/1) Accurately ripped
3 | (1/1) Accurately ripped
4 | (1/1) Accurately ripped
5 | (1/1) Accurately ripped
6 | (1/1) Accurately ripped
7 | (1/1) Accurately ripped
8 | (1/1) Accurately ripped
9 | (1/1) Accurately ripped
10 | (1/1) Accurately ripped
11 | (1/1) Accurately ripped
12 | (1/1) Accurately ripped
13 | (1/1) Accurately ripped
14 | (1/1) Accurately ripped
15 | (1/1) Accurately ripped
16 | (1/1) Accurately ripped
17 | (1/1) Accurately ripped
18 | (1/1) Accurately ripped
19 | (1/1) Accurately ripped
20 | (1/1) Accurately ripped
21 | (1/1) Accurately ripped
22 | (1/1) Accurately ripped
23 | (1/1) Accurately ripped
24 | (1/1) Accurately ripped
25 | (1/1) Accurately ripped
26 | (1/1) Accurately ripped
27 | (1/1) Accurately ripped
28 | (1/1) Accurately ripped
29 | (1/1) Accurately ripped
30 | (1/1) Accurately ripped
31 | (1/1) Accurately ripped
32 | (1/1) Accurately ripped
33 | (1/1) Accurately ripped
34 | (1/1) Accurately ripped
==== Log checksum 6F31B5FCE1C90CEE13AF54BD9DEAF35F98F177C556D8674C77916276386AE48F ====

Содержание индексной карты (.CUE)

REM GENRE opera
REM DATE 1983
REM DISCID 02115B22
REM COMMENT ExactAudioCopy v1.0b4
PERFORMER "Stockhausen, Karlheinz"
TITLE "Donnerstag aus Licht Cd1-4"
FILE "CD1.flac" WAVE
TRACK 01 AUDIO
TITLE "Donnerstag Gruss - MICHAELs-GRUSS I"
ISRC DEF058031200
INDEX 00 00:00:00
INDEX 01 00:00:33
TRACK 02 AUDIO
TITLE "MICHAELs-GRUSS II"
ISRC DEF058031200
INDEX 00 03:08:05
INDEX 01 03:13:40
TRACK 03 AUDIO
TITLE "MICHAELs-GRUSS III"
ISRC DEF058031200
INDEX 00 08:47:38
INDEX 01 08:53:60
TRACK 04 AUDIO
TITLE "Acte I - MICHAELs JUGEND"
ISRC DEF058031200
INDEX 00 11:27:28
INDEX 01 11:41:33
TRACK 05 AUDIO
TITLE "KINDHEIT I"
ISRC DEF058031200
INDEX 01 15:26:00
TRACK 06 AUDIO
TITLE "KINDHEIT II"
ISRC DEF058031200
INDEX 01 19:18:28
TRACK 07 AUDIO
TITLE "KINDHEIT III"
ISRC DEF058031200
INDEX 01 20:50:50
TRACK 08 AUDIO
TITLE "KINDHEIT IV"
ISRC DEF058031200
INDEX 01 22:29:25
TRACK 09 AUDIO
TITLE "KINDHEIT V"
ISRC DEF058031200
INDEX 01 28:48:00
TRACK 10 AUDIO
TITLE "KINDHEIT VI"
ISRC DEF058031200
INDEX 01 31:18:73
TRACK 11 AUDIO
TITLE "Scene 2 - MONDEVA"
ISRC DEF058031200
INDEX 01 40:48:38
TRACK 12 AUDIO
TITLE "Scene 3 - EXAMEN - EXAMEN 1 - Anfang"
ISRC DEF058031200
INDEX 01 53:31:15
TRACK 13 AUDIO
TITLE "Stadium I"
ISRC DEF058031200
INDEX 01 54:02:00
TRACK 14 AUDIO
TITLE "Stadium II"
ISRC DEF058031200
INDEX 01 55:13:60
TRACK 15 AUDIO
TITLE "Stadium III"
ISRC DEF058031200
INDEX 01 55:58:28
TRACK 16 AUDIO
TITLE "Stadium IV"
ISRC DEF058031200
INDEX 01 56:39:18
TRACK 17 AUDIO
TITLE "Stadium V"
ISRC DEF058031200
INDEX 01 57:36:58
TRACK 18 AUDIO
TITLE "Stadium VI"
ISRC DEF058031200
INDEX 01 58:36:28
TRACK 19 AUDIO
TITLE "Stadium VII"
ISRC DEF058031200
INDEX 01 59:28:10
TRACK 20 AUDIO
TITLE "EXAMEN 2 - Anfang"
ISRC DEF058031200
INDEX 01 61:09:58
TRACK 21 AUDIO
TITLE "Stadium I"
ISRC DEF058031200
INDEX 01 61:13:68
TRACK 22 AUDIO
TITLE "Stadium II"
ISRC DEF058031200
INDEX 01 61:37:43
TRACK 23 AUDIO
TITLE "Stadium III"
ISRC DEF058031200
INDEX 01 61:56:65
TRACK 24 AUDIO
TITLE "Stadium IV"
ISRC DEF058031200
INDEX 01 62:14:25
TRACK 25 AUDIO
TITLE "Stadium V"
ISRC DEF058031200
INDEX 01 62:37:68
TRACK 26 AUDIO
TITLE "Stadium VI"
ISRC DEF058031200
INDEX 01 63:00:73
TRACK 27 AUDIO
TITLE "Stadium VII"
ISRC DEF058031200
INDEX 01 63:24:70
TRACK 28 AUDIO
TITLE "EXAMEN 3 - Stadium I"
ISRC DEF058031200
INDEX 01 64:02:43
TRACK 29 AUDIO
TITLE "Stadium II"
ISRC DEF058031200
INDEX 01 65:37:03
TRACK 30 AUDIO
TITLE "Stadium III"
ISRC DEF058031200
INDEX 01 66:30:73
TRACK 31 AUDIO
TITLE "Stadium IV"
ISRC DEF058031200
INDEX 01 67:23:10
TRACK 32 AUDIO
TITLE "Stadium V"
ISRC DEF058031200
INDEX 01 68:48:10
TRACK 33 AUDIO
TITLE "Stadium VI"
ISRC DEF058031200
INDEX 01 70:07:03
TRACK 34 AUDIO
TITLE "Stadium VII"
ISRC DEF058031200
INDEX 01 71:18:38

CD2

Akt II - MICHAELs REISE UM DIE ERDE:
[01] EINGANG
[02] ABSCHIED
[03] ABFAHRT
[04] STATION 1
[05] STATION 2
[06] STATION 3
[07] STATION 4
[08] STATION 5
[09] STATION 6
UMKEHR
[10] STATION 7
[11] HALT
[12] MIZZION
[13] VERSPOTTUNG
[14] KREUZIGUNG
[15] HIMMELFAHRT

Лог создания рипа

Exact Audio Copy V1.0 beta 4 from 7. December 2014
EAC extraction logfile from 21. November 2015, 20:06
Stockhausen, Karlheinz / Donnerstag aus Licht Cd2-4
Used drive : PHILIPS PCRW804 Adapter: 1 ID: 1
Read mode : Secure
Utilize accurate stream : Yes
Defeat audio cache : Yes
Make use of C2 pointers : No
Read offset correction : -436
Overread into Lead-In and Lead-Out : No
Fill up missing offset samples with silence : Yes
Delete leading and trailing silent blocks : No
Null samples used in CRC calculations : Yes
Used interface : Native Win32 interface for Win NT & 2000
Used output format : User Defined Encoder
Selected bitrate : 1024 kBit/s
Quality : High
Add ID3 tag : No
Command line compressor : C:\Program Files (x86)\FLAC\flac.exe
Additional command line options : -T "COMMENT=rip by el coronel" -8 -V %source%
TOC of the extracted CD
Track | Start | Length | Start sector | End sector
---------------------------------------------------------
1 | 0:00.33 | 2:03.25 | 33 | 9282
2 | 2:03.58 | 2:22.57 | 9283 | 19989
3 | 4:26.40 | 1:13.60 | 19990 | 25524
4 | 5:40.25 | 2:14.48 | 25525 | 35622
5 | 7:54.73 | 2:08.57 | 35623 | 45279
6 | 10:03.55 | 3:10.20 | 45280 | 59549
7 | 13:14.00 | 4:08.68 | 59550 | 78217
8 | 17:22.68 | 2:17.40 | 78218 | 88532
9 | 19:40.33 | 3:44.35 | 88533 | 105367
10 | 23:24.68 | 2:25.12 | 105368 | 116254
11 | 25:50.05 | 6:30.48 | 116255 | 145552
12 | 32:20.53 | 6:07.32 | 145553 | 173109
13 | 38:28.10 | 1:39.30 | 173110 | 180564
14 | 40:07.40 | 2:56.55 | 180565 | 193819
15 | 43:04.20 | 5:34.13 | 193820 | 218882
Range status and errors
Selected range
Filename F:\Music\Stockhausen - Donnerstag aus Licht\CD 2\CD2.wav
Peak level 88.8 %
Extraction speed 1.8 X
Range quality 99.9 %
Test CRC 242D7E10
Copy CRC 242D7E10
Copy OK
No errors occurred
AccurateRip summary
Track 1 accurately ripped (confidence 2) [79CB5405] (AR v2)
Track 2 accurately ripped (confidence 2) [D4DB3F97] (AR v2)
Track 3 accurately ripped (confidence 2) [9F92D6CE] (AR v2)
Track 4 accurately ripped (confidence 2) [E1135C0F] (AR v2)
Track 5 accurately ripped (confidence 2) [14891348] (AR v2)
Track 6 accurately ripped (confidence 2) [C2BBF0FF] (AR v2)
Track 7 accurately ripped (confidence 2) [0ECD5BEC] (AR v2)
Track 8 accurately ripped (confidence 2) [0812F49B] (AR v2)
Track 9 accurately ripped (confidence 2) [044BFDED] (AR v2)
Track 10 accurately ripped (confidence 2) [786A3B7E] (AR v2)
Track 11 accurately ripped (confidence 2) [1E967D7A] (AR v2)
Track 12 accurately ripped (confidence 2) [A17B78DD] (AR v2)
Track 13 accurately ripped (confidence 2) [8EC7F347] (AR v2)
Track 14 accurately ripped (confidence 2) [BF58B645] (AR v2)
Track 15 accurately ripped (confidence 2) [BD472A69] (AR v2)
All tracks accurately ripped
End of status report
---- CUETools DB Plugin V2.1.4
[CTDB TOCID: ralkF7nDJja4bVsHxD9l53YyYAk-] found
Submit result: ralkF7nDJja4bVsHxD9l53YyYAk- has been confirmed
Track | CTDB Status
1 | (2/2) Accurately ripped
2 | (2/2) Accurately ripped
3 | (2/2) Accurately ripped
4 | (2/2) Accurately ripped
5 | (2/2) Accurately ripped
6 | (2/2) Accurately ripped
7 | (2/2) Accurately ripped
8 | (2/2) Accurately ripped
9 | (2/2) Accurately ripped
10 | (2/2) Accurately ripped
11 | (2/2) Accurately ripped
12 | (2/2) Accurately ripped
13 | (2/2) Accurately ripped
14 | (2/2) Accurately ripped
15 | (2/2) Accurately ripped
==== Log checksum 5BA98BAD20966ED84D3F0801CC7BCB93D2C56F54A49FAE3DFA2E8FBDA751DC3C ====

Содержание индексной карты (.CUE)

REM GENRE Opera
REM DATE 1983
REM DISCID BC0B660F
REM COMMENT ExactAudioCopy v1.0b4
PERFORMER "Stockhausen, Karlheinz"
TITLE "Donnerstag aus Licht CD2"
FILE "CD2.flac" WAVE
TRACK 01 AUDIO
TITLE "Acte 2 - MICHAELs REISE UM DIE ERDE - EINGANG"
ISRC DEF058031200
INDEX 00 00:00:00
INDEX 01 00:00:33
TRACK 02 AUDIO
TITLE "ABSCHIED"
ISRC DEF058031200
INDEX 01 02:03:58
TRACK 03 AUDIO
TITLE "ABFAHRT"
ISRC DEF058031200
INDEX 01 04:26:40
TRACK 04 AUDIO
TITLE "STATION 1"
ISRC DEF058031200
INDEX 01 05:40:25
TRACK 05 AUDIO
TITLE "STATION 2"
ISRC DEF058031200
INDEX 01 07:54:73
TRACK 06 AUDIO
TITLE "STATION 3"
ISRC DEF058031200
INDEX 01 10:03:55
TRACK 07 AUDIO
TITLE "STATION 4"
ISRC DEF058031200
INDEX 01 13:14:00
TRACK 08 AUDIO
TITLE "STATION 5"
ISRC DEF058031200
INDEX 01 17:22:68
TRACK 09 AUDIO
TITLE "STATION 6"
ISRC DEF058031200
INDEX 01 19:40:33
TRACK 10 AUDIO
TITLE "UMKEHR - STATION 7"
ISRC DEF058031200
INDEX 01 23:24:68
TRACK 11 AUDIO
TITLE "HALT"
ISRC DEF058031200
INDEX 01 25:50:05
TRACK 12 AUDIO
TITLE "MIZZION"
ISRC DEF058031200
INDEX 01 32:20:53
TRACK 13 AUDIO
TITLE "VERSPOTTUNG"
ISRC DEF058031200
INDEX 01 38:28:10
TRACK 14 AUDIO
TITLE "KREUZIGUNG"
ISRC DEF058031200
INDEX 01 40:07:40
TRACK 15 AUDIO
TITLE "HIMMELFAHRT"
ISRC DEF058031200
INDEX 01 43:04:20

CD3

Akt III - MICHAELs HEIMKEHR:
1. Szene - FESTIVAL
[01] Abschnitt 1
[02] Abschnitt 2
[03] Abschnitt 3
[04] Abschnitt 4 (Dank MICHAELs)
[05] Abschnitt 5
[06] Abschnitt 6
[07] Abschnitt 7 (Aufruf, MEDITATION)
[08] Abschnitt 8
[09] Abschnitt 9
[10] Abschnitt 10
[11] Abschnitt 11
[12] Abschnitt 12
[13] Abschnitt 13A & 13B
[14] Abschnitt 14
[15] Abschnitt 15
[16] Abschnitt 16
[17] Abschnitt 17
[18] Abschnitt 18
[19] Abschnitt 19
[20] Abschnitt 20
[21] Abschnitt 21
[22] Abschnitt 22
[23] Abschnitt 23
[24] Abschnitt 24
[25] Abschnitt 25
[26] Abschnitt 26
[27] Abschnitt 27
[28] Abschnitt 28
[29] Abschnitt 29A
[30] Abschnitt 29B
[31] Abschnitt 30
[32] Abschnitt 31
[33] Abschnitt 32 (KNABENDUETT)
[34] Abschnitt 33
[35] Abschnitt 34 (ARGUMENT)
[36] Abschnitt 35

Лог создания рипа

Exact Audio Copy V1.0 beta 4 from 7. December 2014
EAC extraction logfile from 21. November 2015, 21:10
Stockhausen, Karlheinz / Donnerstard aus Licht Cd3-4
Used drive : PHILIPS PCRW804 Adapter: 1 ID: 1
Read mode : Secure
Utilize accurate stream : Yes
Defeat audio cache : Yes
Make use of C2 pointers : No
Read offset correction : -436
Overread into Lead-In and Lead-Out : No
Fill up missing offset samples with silence : Yes
Delete leading and trailing silent blocks : No
Null samples used in CRC calculations : Yes
Used interface : Native Win32 interface for Win NT & 2000
Used output format : User Defined Encoder
Selected bitrate : 1024 kBit/s
Quality : High
Add ID3 tag : No
Command line compressor : C:\Program Files (x86)\FLAC\flac.exe
Additional command line options : -T "COMMENT=rip by el coronel" -8 -V %source%
TOC of the extracted CD
Track | Start | Length | Start sector | End sector
---------------------------------------------------------
1 | 0:00.33 | 0:55.37 | 33 | 4194
2 | 0:55.70 | 0:21.23 | 4195 | 5792
3 | 1:17.18 | 1:43.02 | 5793 | 13519
4 | 3:00.20 | 0:20.63 | 13520 | 15082
5 | 3:21.08 | 0:26.10 | 15083 | 17042
6 | 3:47.18 | 0:45.00 | 17043 | 20417
7 | 4:32.18 | 1:11.62 | 20418 | 25804
8 | 5:44.05 | 1:29.05 | 25805 | 32484
9 | 7:13.10 | 0:42.00 | 32485 | 35634
10 | 7:55.10 | 0:41.05 | 35635 | 38714
11 | 8:36.15 | 0:30.65 | 38715 | 41029
12 | 9:07.05 | 0:11.40 | 41030 | 41894
13 | 9:18.45 | 1:29.05 | 41895 | 48574
14 | 10:47.50 | 0:41.38 | 48575 | 51687
15 | 11:29.13 | 0:41.17 | 51688 | 54779
16 | 12:10.30 | 0:38.10 | 54780 | 57639
17 | 12:48.40 | 1:21.15 | 57640 | 63729
18 | 14:09.55 | 2:26.70 | 63730 | 74749
19 | 16:36.50 | 1:08.13 | 74750 | 79862
20 | 17:44.63 | 1:41.27 | 79863 | 87464
21 | 19:26.15 | 1:04.28 | 87465 | 92292
22 | 20:30.43 | 0:41.50 | 92293 | 95417
23 | 21:12.18 | 0:21.62 | 95418 | 97054
24 | 21:34.05 | 1:21.20 | 97055 | 103149
25 | 22:55.25 | 1:14.03 | 103150 | 108702
26 | 24:09.28 | 5:31.17 | 108703 | 133544
27 | 29:40.45 | 1:35.45 | 133545 | 140714
28 | 31:16.15 | 0:48.30 | 140715 | 144344
29 | 32:04.45 | 1:27.08 | 144345 | 150877
30 | 33:31.53 | 3:30.60 | 150878 | 166687
31 | 37:02.38 | 1:26.40 | 166688 | 173177
32 | 38:29.03 | 0:38.15 | 173178 | 176042
33 | 39:07.18 | 2:07.25 | 176043 | 185592
34 | 41:14.43 | 0:59.02 | 185593 | 190019
35 | 42:13.45 | 0:19.73 | 190020 | 191517
36 | 42:33.43 | 7:04.65 | 191518 | 223382
Range status and errors
Selected range
Filename F:\Music\Stockhausen - Donnerstag aus Licht\CD 3\CD3.wav
Peak level 94.5 %
Extraction speed 1.8 X
Range quality 99.9 %
Test CRC F9972FA8
Copy CRC F9972FA8
Copy OK
No errors occurred
AccurateRip summary
Track 1 accurately ripped (confidence 2) [D3C454A3] (AR v2)
Track 2 accurately ripped (confidence 2) [8D07B7A4] (AR v2)
Track 3 accurately ripped (confidence 2) [D18E0F12] (AR v2)
Track 4 accurately ripped (confidence 2) [FA766E08] (AR v2)
Track 5 accurately ripped (confidence 2) [3096192D] (AR v2)
Track 6 accurately ripped (confidence 2) [D4A7ECDB] (AR v2)
Track 7 accurately ripped (confidence 2) [16462EB4] (AR v2)
Track 8 accurately ripped (confidence 2) [E92A1F3B] (AR v2)
Track 9 accurately ripped (confidence 2) [5DE486A1] (AR v2)
Track 10 accurately ripped (confidence 2) [A113DA63] (AR v2)
Track 11 accurately ripped (confidence 2) [611A435B] (AR v2)
Track 12 accurately ripped (confidence 2) [BD0DD12D] (AR v2)
Track 13 accurately ripped (confidence 2) [B7396D9B] (AR v2)
Track 14 accurately ripped (confidence 2) [FC0F431A] (AR v2)
Track 15 accurately ripped (confidence 2) [BB7544C8] (AR v2)
Track 16 accurately ripped (confidence 2) [0B760A1D] (AR v2)
Track 17 accurately ripped (confidence 2) [F2A6E010] (AR v2)
Track 18 accurately ripped (confidence 2) [D38A3429] (AR v2)
Track 19 accurately ripped (confidence 2) [E911DFF3] (AR v2)
Track 20 accurately ripped (confidence 2) [2CF3DF34] (AR v2)
Track 21 accurately ripped (confidence 2) [FA602990] (AR v2)
Track 22 accurately ripped (confidence 2) [5F7DE917] (AR v2)
Track 23 accurately ripped (confidence 2) [FAB55E54] (AR v2)
Track 24 accurately ripped (confidence 2) [F5778FBE] (AR v2)
Track 25 accurately ripped (confidence 2) [C83442C2] (AR v2)
Track 26 accurately ripped (confidence 2) [1C1F0002] (AR v2)
Track 27 accurately ripped (confidence 2) [56E4BB2B] (AR v2)
Track 28 accurately ripped (confidence 2) [0EC8C16C] (AR v2)
Track 29 accurately ripped (confidence 2) [0934E720] (AR v2)
Track 30 accurately ripped (confidence 2) [96CDD83B] (AR v2)
Track 31 accurately ripped (confidence 2) [BA56E609] (AR v2)
Track 32 accurately ripped (confidence 2) [4197C347] (AR v2)
Track 33 accurately ripped (confidence 2) [B487E3C9] (AR v2)
Track 34 accurately ripped (confidence 2) [BB638309] (AR v2)
Track 35 accurately ripped (confidence 2) [FAF4C393] (AR v2)
Track 36 accurately ripped (confidence 2) [E868040D] (AR v2)
All tracks accurately ripped
End of status report
---- CUETools DB Plugin V2.1.4
[CTDB TOCID: doSxHodMIlLELxHXTrhk.fOOORc-] found
Submit result: doSxHodMIlLELxHXTrhk.fOOORc- has been confirmed
Track | CTDB Status
1 | (2/2) Accurately ripped
2 | (2/2) Accurately ripped
3 | (2/2) Accurately ripped
4 | (2/2) Accurately ripped
5 | (2/2) Accurately ripped
6 | (2/2) Accurately ripped
7 | (2/2) Accurately ripped
8 | (2/2) Accurately ripped
9 | (2/2) Accurately ripped
10 | (2/2) Accurately ripped
11 | (2/2) Accurately ripped
12 | (2/2) Accurately ripped
13 | (2/2) Accurately ripped
14 | (2/2) Accurately ripped
15 | (2/2) Accurately ripped
16 | (2/2) Accurately ripped
17 | (2/2) Accurately ripped
18 | (2/2) Accurately ripped
19 | (2/2) Accurately ripped
20 | (2/2) Accurately ripped
21 | (2/2) Accurately ripped
22 | (2/2) Accurately ripped
23 | (2/2) Accurately ripped
24 | (2/2) Accurately ripped
25 | (2/2) Accurately ripped
26 | (2/2) Accurately ripped
27 | (2/2) Accurately ripped
28 | (2/2) Accurately ripped
29 | (2/2) Accurately ripped
30 | (2/2) Accurately ripped
31 | (2/2) Accurately ripped
32 | (2/2) Accurately ripped
33 | (2/2) Accurately ripped
34 | (2/2) Accurately ripped
35 | (2/2) Accurately ripped
36 | (2/2) Accurately ripped
==== Log checksum BDDFB1052CC30C863DE0370E2CCB28B52733CC76C004C249E253C66EC552F0B0 ====

Содержание индексной карты (.CUE)

REM GENRE Opera
REM DATE 1983
REM DISCID FE0BA224
REM COMMENT ExactAudioCopy v1.0b4
PERFORMER "Stockhausen, Karlheinz"
TITLE "Donnerstag aus Licht CD3"
FILE "CD3.flac" WAVE
TRACK 01 AUDIO
TITLE "Acte 3 - MICHAELs HEIMKEHR - FESTIVAL - Abschnitt 1"
ISRC DEF058031200
INDEX 00 00:00:00
INDEX 01 00:00:33
TRACK 02 AUDIO
TITLE "Abschnitt 2"
ISRC DEF058031200
INDEX 01 00:55:70
TRACK 03 AUDIO
TITLE "Abschnitt 3"
ISRC DEF058031200
INDEX 01 01:17:18
TRACK 04 AUDIO
TITLE "Abschnitt 4 (Dank MICHAELs)"
ISRC DEF058031200
INDEX 01 03:00:20
TRACK 05 AUDIO
TITLE "Abschnitt 5"
ISRC DEF058031200
INDEX 01 03:21:08
TRACK 06 AUDIO
TITLE "Abschnitt 6"
ISRC DEF058031200
INDEX 01 03:47:18
TRACK 07 AUDIO
TITLE "Abschnitt 7 (Aufruf, MEDITATION)"
ISRC DEF058031200
INDEX 01 04:32:18
TRACK 08 AUDIO
TITLE "Abschnitt 8"
ISRC DEF058031200
INDEX 01 05:44:05
TRACK 09 AUDIO
TITLE "Abschnitt 9"
ISRC DEF058031200
INDEX 01 07:13:10
TRACK 10 AUDIO
TITLE "Abschnitt 10"
ISRC DEF058031200
INDEX 01 07:55:10
TRACK 11 AUDIO
TITLE "Abschnitt 11"
ISRC DEF058031200
INDEX 01 08:36:15
TRACK 12 AUDIO
TITLE "Abschnitt 12"
ISRC DEF058031200
INDEX 01 09:07:05
TRACK 13 AUDIO
TITLE "Abschnitt 13A & 13B"
ISRC DEF058031200
INDEX 01 09:18:45
TRACK 14 AUDIO
TITLE "Abschnitt 14"
ISRC DEF058031200
INDEX 01 10:47:50
TRACK 15 AUDIO
TITLE "Abschnitt 15"
ISRC DEF058031200
INDEX 01 11:29:13
TRACK 16 AUDIO
TITLE "Abschnitt 16"
ISRC DEF058031200
INDEX 01 12:10:30
TRACK 17 AUDIO
TITLE "Abschnitt 17"
ISRC DEF058031200
INDEX 01 12:48:40
TRACK 18 AUDIO
TITLE "Abschnitt 18"
ISRC DEF058031200
INDEX 01 14:09:55
TRACK 19 AUDIO
TITLE "Abschnitt 19"
ISRC DEF058031200
INDEX 01 16:36:50
TRACK 20 AUDIO
TITLE "Abschnitt 20"
ISRC DEF058031200
INDEX 01 17:44:63
TRACK 21 AUDIO
TITLE "Abschnitt 21"
ISRC DEF058031200
INDEX 01 19:26:15
TRACK 22 AUDIO
TITLE "Abschnitt 22"
ISRC DEF058031200
INDEX 01 20:30:43
TRACK 23 AUDIO
TITLE "Abschnitt 23"
ISRC DEF058031200
INDEX 01 21:12:18
TRACK 24 AUDIO
TITLE "Abschnitt 24"
ISRC DEF058031200
INDEX 01 21:34:05
TRACK 25 AUDIO
TITLE "Abschnitt 25"
ISRC DEF058031200
INDEX 01 22:55:25
TRACK 26 AUDIO
TITLE "Abschnitt 26"
ISRC DEF058031200
INDEX 01 24:09:28
TRACK 27 AUDIO
TITLE "Abschnitt 27"
ISRC DEF058031200
INDEX 01 29:40:45
TRACK 28 AUDIO
TITLE "Abschnitt 28"
ISRC DEF058031200
INDEX 01 31:16:15
TRACK 29 AUDIO
TITLE "Abschnitt 29A"
ISRC DEF058031200
INDEX 01 32:04:45
TRACK 30 AUDIO
TITLE "Abschnitt 29B"
ISRC DEF058031200
INDEX 01 33:31:53
TRACK 31 AUDIO
TITLE "Abschnitt 30"
ISRC DEF058031200
INDEX 01 37:02:38
TRACK 32 AUDIO
TITLE "Abschnitt 31"
ISRC DEF058031200
INDEX 01 38:29:03
TRACK 33 AUDIO
TITLE "Abschnitt 32 (KNABENDUETT)"
ISRC DEF058031200
INDEX 01 39:07:18
TRACK 34 AUDIO
TITLE "Abschnitt 33"
ISRC DEF058031200
INDEX 01 41:14:43
TRACK 35 AUDIO
TITLE "Abschnitt 34 (ARGUMENT)"
ISRC DEF058031200
INDEX 01 42:13:45
TRACK 36 AUDIO
TITLE "Abschnitt 35"
ISRC DEF058031200
INDEX 01 42:33:43

CD4

2. Szene - VISION:
[01] Michael: »LUZIFER, der vornehmste...«
[02] Michael: »Für ein Weltzeitalter...«
[03] Michael: »Ich - Geist vom Geiste MICHAEL«
[04] Michael: »Ihr habt mich gehört...«
SCHATTENSPIELE
[05] SCHATTENSPIELE 1
[06] SCHATTENSPIELE 2
[07] SCHATTENSPIELE 3
[08] SCHATTENSPIELE 4
[09] SCHATTENSPIELE 5
[10] SCHATTENSPIELE 6
[11] SCHATTENSPIELE 7
[12] 3 Michaels: »LUZIFER, des Fürst des Lichtes«
[13] 3 Michaels: »Und doch bin ich Mensch«
[14] 3 Michaels: »Mensch geworden bin ich«
[15] 3 Michaels: »Und ich weiss, dass viele von Euch mich verlachen«
[16] DONNERSTAG-ABSCHIED

Лог создания рипа

Exact Audio Copy V1.0 beta 4 from 7. December 2014
EAC extraction logfile from 21. November 2015, 22:02
Stockhausen, Karlheinz / Donnerstad aus Licht Cd4-4
Used drive : PHILIPS PCRW804 Adapter: 1 ID: 1
Read mode : Secure
Utilize accurate stream : Yes
Defeat audio cache : Yes
Make use of C2 pointers : No
Read offset correction : -436
Overread into Lead-In and Lead-Out : No
Fill up missing offset samples with silence : Yes
Delete leading and trailing silent blocks : No
Null samples used in CRC calculations : Yes
Used interface : Native Win32 interface for Win NT & 2000
Used output format : User Defined Encoder
Selected bitrate : 1024 kBit/s
Quality : High
Add ID3 tag : No
Command line compressor : C:\Program Files (x86)\FLAC\flac.exe
Additional command line options : -T "COMMENT=rip by el coronel" -8 -V %source%
TOC of the extracted CD
Track | Start | Length | Start sector | End sector
---------------------------------------------------------
1 | 0:00.33 | 1:20.15 | 33 | 6047
2 | 1:20.48 | 1:55.45 | 6048 | 14717
3 | 3:16.18 | 2:37.45 | 14718 | 26537
4 | 5:53.63 | 0:58.35 | 26538 | 30922
5 | 6:52.23 | 1:10.00 | 30923 | 36172
6 | 8:02.23 | 0:36.00 | 36173 | 38872
7 | 8:38.23 | 1:16.05 | 38873 | 44577
8 | 9:54.28 | 1:30.00 | 44578 | 51327
9 | 11:24.28 | 0:58.27 | 51328 | 55704
10 | 12:22.55 | 0:36.53 | 55705 | 58457
11 | 12:59.33 | 5:01.57 | 58458 | 81089
12 | 18:01.15 | 1:21.20 | 81090 | 87184
13 | 19:22.35 | 2:28.13 | 87185 | 98297
14 | 21:50.48 | 2:28.37 | 98298 | 109434
15 | 24:19.10 | 3:53.23 | 109435 | 126932
16 | 28:12.33 | 10:28.00 | 126933 | 174032
Range status and errors
Selected range
Filename F:\Music\Stockhausen - Donnerstag aus Licht\CD 4\CD4.wav
Peak level 94.6 %
Extraction speed 1.6 X
Range quality 99.9 %
Test CRC F63B2343
Copy CRC F63B2343
Copy OK
No errors occurred
AccurateRip summary
Track 1 accurately ripped (confidence 2) [9D032D0C] (AR v2)
Track 2 accurately ripped (confidence 2) [1800887A] (AR v2)
Track 3 accurately ripped (confidence 2) [B041FF97] (AR v2)
Track 4 accurately ripped (confidence 2) [1AF3DA54] (AR v2)
Track 5 accurately ripped (confidence 2) [38BAE07F] (AR v2)
Track 6 accurately ripped (confidence 2) [695A5F6E] (AR v2)
Track 7 accurately ripped (confidence 2) [5E74DCB0] (AR v2)
Track 8 accurately ripped (confidence 2) [3DB631F8] (AR v2)
Track 9 accurately ripped (confidence 2) [E3EF5C01] (AR v2)
Track 10 accurately ripped (confidence 2) [8F06CECF] (AR v2)
Track 11 accurately ripped (confidence 2) [201C3A02] (AR v2)
Track 12 accurately ripped (confidence 2) [E11F7E21] (AR v2)
Track 13 accurately ripped (confidence 2) [062AC0EE] (AR v2)
Track 14 accurately ripped (confidence 2) [7D917BD6] (AR v2)
Track 15 accurately ripped (confidence 2) [49CC308E] (AR v2)
Track 16 accurately ripped (confidence 2) [112C44BF] (AR v2)
All tracks accurately ripped
End of status report
---- CUETools DB Plugin V2.1.4
[CTDB TOCID: f4dgqJvhYUUvRr4lSwAIRu0VRWI-] found
Submit result: f4dgqJvhYUUvRr4lSwAIRu0VRWI- has been confirmed
Track | CTDB Status
1 | (2/2) Accurately ripped
2 | (2/2) Accurately ripped
3 | (2/2) Accurately ripped
4 | (2/2) Accurately ripped
5 | (2/2) Accurately ripped
6 | (2/2) Accurately ripped
7 | (2/2) Accurately ripped
8 | (2/2) Accurately ripped
9 | (2/2) Accurately ripped
10 | (2/2) Accurately ripped
11 | (2/2) Accurately ripped
12 | (2/2) Accurately ripped
13 | (2/2) Accurately ripped
14 | (2/2) Accurately ripped
15 | (2/2) Accurately ripped
16 | (2/2) Accurately ripped
==== Log checksum 1C0E9046E34C6D8EED323E8B3C7BB6F042CF124381F50BE231D9B78E8BD9FE6F ====

Содержание индексной карты (.CUE)

REM GENRE Opera
REM DATE 1983
REM DISCID D1091010
REM COMMENT ExactAudioCopy v1.0b4
PERFORMER "Stockhausen, Karlheinz"
TITLE "Donnerstag aus Licht CD4"
FILE "CD4.flac" WAVE
TRACK 01 AUDIO
TITLE "VISION - Michael - LUZIFER, der vornehmste"
ISRC DEF058031200
INDEX 00 00:00:00
INDEX 01 00:00:33
TRACK 02 AUDIO
TITLE "Michael - Fur ein Weltzeialter"
ISRC DEF058031200
INDEX 01 01:20:48
TRACK 03 AUDIO
TITLE "Michael - Ich - Geist vom Geiste MICHAEL"
ISRC DEF058031200
INDEX 01 03:16:18
TRACK 04 AUDIO
TITLE "Michael - Ihr habt mich gehort"
ISRC DEF058031200
INDEX 01 05:53:63
TRACK 05 AUDIO
TITLE "SCHATTENSPIELE 1"
ISRC DEF058031200
INDEX 01 06:52:23
TRACK 06 AUDIO
TITLE "SCHATTENSPIELE 2"
ISRC DEF058031200
INDEX 01 08:02:23
TRACK 07 AUDIO
TITLE "SCHATTENSPIELE 3"
ISRC DEF058031200
INDEX 01 08:38:23
TRACK 08 AUDIO
TITLE "SCHATTENSPIELE 4"
ISRC DEF058031200
INDEX 01 09:54:28
TRACK 09 AUDIO
TITLE "SCHATTENSPIELE 5"
ISRC DEF058031200
INDEX 01 11:24:28
TRACK 10 AUDIO
TITLE "SCHATTENSPIELE 6"
ISRC DEF058031200
INDEX 01 12:22:55
TRACK 11 AUDIO
TITLE "SCHATTENSPIELE 7"
ISRC DEF058031200
INDEX 01 12:59:33
TRACK 12 AUDIO
TITLE "3 Michaels - LUZIFER, des Furst des Lichtes"
ISRC DEF058031200
INDEX 01 18:01:15
TRACK 13 AUDIO
TITLE "3 Michaels - Und doch bin ich Mensch"
ISRC DEF058031200
INDEX 01 19:22:35
TRACK 14 AUDIO
TITLE "3 Michaels - Mensch geworden bin ich"
ISRC DEF058031200
INDEX 01 21:50:48
TRACK 15 AUDIO
TITLE "3 Michaels - Und ich weiss, dass viele von Euch mich verlachen"
ISRC DEF058031200
INDEX 01 24:19:10
TRACK 16 AUDIO
TITLE "DONNERSTAG-ABSCHIED"
ISRC DEF058031200
INDEX 00 28:04:33
INDEX 01 28:12:33

Исполнители

Michael
Tenor: Robert Gambill (Act 1) • Michael Angel (Akt 3: FESTIVAL) • Paul Sperry (Akt 3: VISION)
Trompete: Markus Stockhausen
Eva
Soprano: Annette Meriweather
Bassetthorn: Suzanne Stephens
Sprecherin: Elizabeth Clarke
Luzifer
Bass: Matthias Hölle
Posaune: Mark Tezak
Sprecher: Alain Louafi
Michaels Begleiterin im EXAMEN
Klavier: Majella Stockhausen
Clowneskes Schwalbenpärchen
Klarinette: Alain Damiens
Bassetthorn: Michael Arrignon
Zwei Knaben
Sopransaxophone: Hugo Read • Simon Stockhausen
Chor des Westdeutschen Rundfunks Köln
Rundfunkchor Hilversum
Ensemble InterContemporain
Rundfunkorchester Hilversum
Freies Bläser- und Schlagzeugensemble
Peter Eötvös • Karlheinz Stockhausen - conductor



Показать сообщения:    

Текущее время: 06-Дек 19:02

Часовой пояс: UTC + 3


Вы не можете начинать темы
Вы не можете отвечать на сообщения
Вы не можете редактировать свои сообщения
Вы не можете удалять свои сообщения
Вы не можете голосовать в опросах
Вы не можете прикреплять файлы к сообщениям
Вы не можете скачивать файлы