Кровь / O Sangue (Педру Кошта / Pedro Costa) [1989, Португалия, драма, DVDRip-AVC] + Sub Rus + Original Por


Статистика раздачи [Обновить пиров]
Размер:  1.45 GB   |    Зарегистрирован:  8 месяцев 20 дней   |    Скачан:  0 раз

Полного источника не было: Никогда

 
   
 
 
 

[Цитировать]

Кровь / O Sangue
Страна: Португалия
Жанр: драма
Год выпуска: 1989
Продолжительность: 01:34:54
Перевод: Субтитры
Cубтитры: русские, английские
Оригинальная аудиодорожка: португальский
Навигация по главам: есть
Режиссер: Педру Кошта / Pedro Costa
В ролях: Педро Эштнеш, Нино Фейера, Инеш Медейруш, Луиш Мигел Синтра, Канто и Каштро
О фильме: «Кровь» - несомненно, один из наиболее выдающихся дебютов за последние 20 лет. Снятые в белых и молочно-чёрных тонах кадры настолько тщательно подогнаны друг к другу, что фильм можно было бы принять за тысячи смонтированных фотографий, если бы не эмоциональные, умные диалоги, призрачный оркестровый саундтрек и уместно звучащая поп-музыка. Эта магическая мелодрама рассказывает историю двух юных братьев, вынужденных скрываться от преступных подельников их отца и от пытающегося разлучить их дяди. В ночи, которая, кажется, не кончится никогда, игра городских огней на лицах героев лишь усиливает ощущение нереального. Вероятно, это единственный фильм, в котором Кошта отдаёт дань голливудским подростковым драмам 50-х.
Доп. информация: http://www.imdb.com/title/tt0098252/
Исходник: http://teatrix.ru/viewtopic.php?t=7192
Сэмпл: http://sendfile.su/1208569
Качество видео: DVDRip-AVC
Формат видео: MKV
Видео: x264, 684x552@729x552 (4:3), 25 fps, ~1995 kbps avg, 0.21 bit/pixel
Аудио: 48 kHz, AC3 Dolby Digital, 2/0 (L,R) ch, ~192 kbps avg

MediaInfo

Общее
Уникальный идентификатор : 233984760772711376996127584822020608661 (0xB007D3630EAD09B5AE8D36623E551295)
Полное имя : E:\Фильмы\Кровь\O Sangue.1989.DVDRip-AVC.mkv
Формат : Matroska
Версия формата : Version 2
Размер файла : 1,45 Гбайт
Продолжительность : 1 ч. 34 м.
Общий поток : 2189 Кбит/сек
Название фильма : O Sangue (Pedro Costa, 1989) DVDRip-AVC
Дата кодирования : UTC 2016-02-06 15:04:01
Программа кодирования : mkvmerge v7.8.0 ('River Man') 32bit built on Apr 3 2015 12:11:22
Библиотека кодирования : libebml v1.3.1 + libmatroska v1.4.2
Видео
Идентификатор : 1
Формат : AVC
Формат/Информация : Advanced Video Codec
Профиль формата : High@L4.1
Параметр CABAC формата : Да
Параметр ReFrames формата : 12 кадров
Идентификатор кодека : V_MPEG4/ISO/AVC
Продолжительность : 1 ч. 34 м.
Битрейт : 1995 Кбит/сек
Ширина : 684 пикселя
Высота : 552 пикселя
Соотношение сторон : 4:3
Соотношение сторон в оригинале : 4:3
Режим частоты кадров : Постоянный
Частота кадров : 25,000 кадров/сек
Цветовое пространство : YUV
Субдискретизация насыщенности : 4:2:0
Битовая глубина : 8 бит
Тип развёртки : Прогрессивная
Бит/(Пиксели*Кадры) : 0.211
Размер потока : 1,29 Гбайт (89%)
Библиотека кодирования : x264 core 146 r2538 121396c
Настройки программы : cabac=1 / ref=12 / deblock=1:-1:-1 / analyse=0x3:0x133 / me=umh / subme=10 / psy=1 / psy_rd=1.00:0.20 / mixed_ref=1 / me_range=32 / chroma_me=1 / trellis=2 / 8x8dct=1 / cqm=0 / deadzone=21,11 / fast_pskip=0 / chroma_qp_offset=-3 / threads=6 / lookahead_threads=1 / sliced_threads=0 / nr=0 / decimate=0 / interlaced=0 / bluray_compat=0 / constrained_intra=0 / bframes=12 / b_pyramid=2 / b_adapt=2 / b_bias=0 / direct=3 / weightb=1 / open_gop=0 / weightp=2 / keyint=250 / keyint_min=25 / scenecut=40 / intra_refresh=0 / rc=2pass / mbtree=0 / bitrate=1995 / ratetol=1.0 / qcomp=0.75 / qpmin=10 / qpmax=51 / qpstep=4 / cplxblur=20.0 / qblur=0.5 / ip_ratio=1.30 / pb_ratio=1.20 / aq=1:0.70
Язык : English
Default : Да
Forced : Нет
Коэффициенты матрицы : BT.601
Аудио
Идентификатор : 2
Формат : AC-3
Формат/Информация : Audio Coding 3
Расширение режима : CM (complete main)
Параметр Endianness формата : Big
Идентификатор кодека : A_AC3
Продолжительность : 1 ч. 34 м.
Вид битрейта : Постоянный
Битрейт : 192 Кбит/сек
Каналы : 2 канала
Расположение каналов : Front: L R
Частота : 48,0 КГц
Метод сжатия : С потерями
Размер потока : 130 Мбайт (9%)
Заголовок : Original
Язык : Portuguese
Default : Да
Forced : Нет
Текст #1
Идентификатор : 3
Формат : UTF-8
Идентификатор кодека : S_TEXT/UTF8
Идентификатор кодека/Информация : UTF-8 Plain Text
Язык : Russian
Default : Да
Forced : Нет
Текст #2
Идентификатор : 4
Формат : UTF-8
Идентификатор кодека : S_TEXT/UTF8
Идентификатор кодека/Информация : UTF-8 Plain Text
Язык : English
Default : Нет
Forced : Нет
Меню
00:00:00.000 : en:Chapter 1
00:00:08.440 : en:Chapter 2
00:10:30.520 : en:Chapter 3
00:21:06.080 : en:Chapter 4
00:31:42.640 : en:Chapter 5
00:39:43.280 : en:Chapter 6
00:51:03.560 : en:Chapter 7
01:01:28.880 : en:Chapter 8
01:10:57.840 : en:Chapter 9
01:22:34.400 : en:Chapter 10

x264

x264 [info]: frame I:702 Avg QP:17.22 size: 41089
x264 [info]: frame P:25096 Avg QP:19.19 size: 17699
x264 [info]: frame B:116568 Avg QP:20.38 size: 8125
x264 [info]: consecutive B-frames: 0.7% 0.8% 3.4% 10.4% 10.9% 50.3% 7.3% 3.6% 4.5% 1.2% 1.2% 4.7% 1.0%
x264 [info]: mb I I16..4: 17.5% 53.3% 29.2%
x264 [info]: mb P I16..4: 1.2% 6.8% 2.4% P16..4: 31.8% 19.1% 15.7% 0.9% 0.4% skip:21.7%
x264 [info]: mb B I16..4: 0.1% 0.8% 0.3% B16..8: 29.4% 11.6% 3.3% direct:12.8% skip:41.7% L0:45.4% L1:31.7% BI:22.9%
x264 [info]: 8x8 transform intra:65.1% inter:38.5%
x264 [info]: direct mvs spatial:99.3% temporal:0.7%
x264 [info]: coded y,uvDC,uvAC intra: 83.1% 0.2% 0.1% inter: 35.7% 0.0% 0.0%
x264 [info]: i16 v,h,dc,p: 43% 12% 17% 28%
x264 [info]: i8 v,h,dc,ddl,ddr,vr,hd,vl,hu: 17% 10% 19% 7% 10% 10% 9% 9% 10%
x264 [info]: i4 v,h,dc,ddl,ddr,vr,hd,vl,hu: 18% 9% 10% 7% 12% 12% 10% 10% 12%
x264 [info]: i8c dc,h,v,p: 100% 0% 0% 0%
x264 [info]: Weighted P-Frames: Y:15.7% UV:0.0%
x264 [info]: ref P L0: 35.8% 12.8% 15.1% 8.4% 6.5% 5.4% 4.6% 3.0% 2.6% 2.2% 1.9% 1.5% 0.2% 0.0%
x264 [info]: ref B L0: 60.0% 15.1% 7.8% 4.5% 3.6% 2.9% 2.5% 1.5% 1.2% 0.7% 0.3%
x264 [info]: ref B L1: 91.0% 9.0%

Пример субтитров

1
00:00:49,280 --> 00:00:51,077
Делай со мной, что хочешь.
2
00:01:01,560 --> 00:01:03,073
Не уходи.
3
00:01:05,200 --> 00:01:07,395
- Что я скажу Нино?
- Что я умер.
4
00:04:07,160 --> 00:04:10,436
КРОВЬ
5
00:04:45,600 --> 00:04:50,390
<i>Ночь темна и не светит луна,</i>
6
00:04:51,360 --> 00:04:55,638
<i>Воет волк вдалеке одиноко.</i>
7
00:06:13,760 --> 00:06:15,273
Висенте!
8
00:06:20,160 --> 00:06:22,435
Слава богу!
Роза опять сбежала.
9
00:06:22,600 --> 00:06:24,192
Вместе с твоим братом.
10
00:06:28,520 --> 00:06:30,636
- Роза!
- Нино!
11
00:06:56,200 --> 00:06:58,794
Её ничем не остановишь.
Не знаю, что на неё нашло.
12
00:07:08,720 --> 00:07:10,517
А вы снова остались вдвоём?
13
00:07:13,640 --> 00:07:15,278
Это ненадолго.
14
00:07:18,880 --> 00:07:20,916
Я знаю, потому что Нино
мне всё рассказывает.
15
00:07:23,600 --> 00:07:25,238
Когда вернётся твой отец?
16
00:07:25,280 --> 00:07:27,032
Не знаю. Он уехал лечиться.
17
00:07:27,440 --> 00:07:28,953
Ему хуже?
18
00:07:41,760 --> 00:07:43,239
Роза! Что случилось?
19
00:07:44,960 --> 00:07:46,712
Кто тебя обидел?
20
00:07:48,680 --> 00:07:51,274
Я тебе миллион раз говорила
одной сюда не ходить.
[teatrix.ru].t23160.torrent 
Торрент: Зарегистрирован [ 2016-03-21 00:32 ] · C0140C99DCC973C0D7BE9735378538E11A0C596D

Скачать .torrent

Скачать

15 KB

Статус: проверено
Скачан: 0 раз
Размер: 1.45 GB
terms.php



Быстрый ответ

Имя:

      
Для отправки сообщений необходимо включить JavaScript
Показать сообщения:    

Текущее время: 10-Дек 09:58

Часовой пояс: UTC + 3


Вы можете начинать темы
Вы можете отвечать на сообщения
Вы не можете редактировать свои сообщения
Вы не можете удалять свои сообщения
Вы не можете голосовать в опросах
Вы не можете прикреплять файлы к сообщениям
Вы можете скачивать файлы