Горничная / Служанка / Hanyo / The Housemaid (Ким Ки-Ён / Kim Ki-young) [1960, Южная Корея, мизогинический триллер, ужасы, BDRip 720p] VO (liosaa) + Sub Rus, Eng + Original Kor


 

[Цитировать]

Горничная / Служанка / Hanyo / The Housemaid
Страна: Южная Корея
Жанр: мизогинический триллер, ужасы
Год выпуска: 1960
Продолжительность: 01:51:39
Перевод: Одноголосый закадровый (liosaa)
Cубтитры: русские (liosaa), английские
Оригинальная аудиодорожка: корейский
Режиссер: Ким Ки-Ён / Kim Ki-young
В ролях: Ким Джин-Кю, Джу Джен-Рю, Ум Айн-Ран, Ан Сён-Ги...
Описание: ..Гениальный мизогинический триллер ("мизогиния" - женобоязнь) с несколько кривой драматургией и странной моралью. Интеллигентная мещанская семья — он учитель музыки, она шьет, детишки-хамы — нанимает мыть полы фабричную девушку, которая оказывается юным чудовищем, довольно несчастным при этом. Сперва она практически насилует учителя, залетает от него; потом мещане на время над ней одерживают верх (попутно показывая себя с крайне мерзкой стороны), но полотерша уже в надломленном состоянии им ухитряется такой театр жестокости устроить, что следующее поколение корейских режиссеров, в детстве это увидев, теперь все снимают то, что снимают (и еще дружно верят, что Поланский с Ханеке тоже все у Ким Ки Ёна украли).. (Р.Волобуев)
Доп. информация: ..HD-рип найден в сети, русская дорожка пересобрана заново (перевод теперь звучит яснее и четче)..
**СЭМПЛ
**DVD9 Criterion
Тип релиза: BDRip 720p
Контейнер: MKV
Видео: x264, 1124x720, 23.976 fps, 6 500 Kbps
Аудио 1: AC-3 1.0, 640 Kbps, 48 КГц, 16 бит (рус)
Аудио 2: AC-3 1.0, 640 Kbps, 48 КГц, 16 бит (kor)
Формат субтитров: softsub (SRT)

MediaInfo

Формат : Matroska
Версия формата : Version 2
Размер файла : 6,07 Гбайт
Продолжительность : 1 ч. 51 м.
Общий поток : 7781 Кбит/сек
Дата кодирования : UTC 2016-03-01 02:37:08
Программа кодирования : mkvmerge v2.9.8 ('C'est le bon') built on Aug 13 2009 12:49:06
Библиотека кодирования : libebml v0.7.7 + libmatroska v0.8.1
Видео
Идентификатор : 1
Формат : AVC
Формат/Информация : Advanced Video Codec
Профиль формата : High@L4.1
Параметр CABAC формата : Да
Параметр ReFrames формата : 6 кадров
Идентификатор кодека : V_MPEG4/ISO/AVC
Продолжительность : 1 ч. 51 м.
Битрейт : 6500 Кбит/сек
Ширина : 1124 пикселя
Высота : 720 пикселей
Соотношение сторон : 1,561
Режим частоты кадров : Постоянный
Частота кадров : 23,976 кадра/сек
Цветовое пространство : YUV
Субдискретизация насыщенности : 4:2:0
Битовая глубина : 8 бит
Тип развёртки : Прогрессивная
Бит/(Пиксели*Кадры) : 0.335
Размер потока : 4,95 Гбайт (82%)
Библиотека кодирования : x264 core 130 r2273 b3065e6
Настройки программы : cabac=1 / ref=6 / deblock=1:-3:-3 / analyse=0x3:0x133 / me=umh / subme=9 / psy=1 / psy_rd=1.00:0.15 / mixed_ref=1 / me_range=24 / chroma_me=1 / trellis=2 / 8x8dct=1 / cqm=0 / deadzone=21,11 / fast_pskip=1 / chroma_qp_offset=-3 / threads=18 / lookahead_threads=2 / sliced_threads=0 / nr=0 / decimate=1 / interlaced=0 / bluray_compat=0 / constrained_intra=0 / bframes=5 / b_pyramid=2 / b_adapt=2 / b_bias=0 / direct=3 / weightb=1 / open_gop=0 / weightp=2 / keyint=240 / keyint_min=24 / scenecut=40 / intra_refresh=0 / rc_lookahead=60 / rc=2pass / mbtree=1 / bitrate=6500 / ratetol=1.0 / qcomp=0.60 / qpmin=0 / qpmax=69 / qpstep=4 / cplxblur=20.0 / qblur=0.5 / vbv_maxrate=62500 / vbv_bufsize=78125 / nal_hrd=none / ip_ratio=1.40 / aq=1:1.00
Язык : English
Default : Нет
Forced : Нет
Основные цвета : BT.709
Характеристики трансфера : BT.709
Коэффициенты матрицы : BT.709
Аудио #1
Идентификатор : 2
Формат : AC-3
Формат/Информация : Audio Coding 3
Расширение режима : CM (complete main)
Параметр Endianness формата : Big
Идентификатор кодека : A_AC3
Продолжительность : 1 ч. 51 м.
Вид битрейта : Постоянный
Битрейт : 640 Кбит/сек
Каналы : 1 канал
Расположение каналов : Front: C
Частота : 48,0 КГц
Битовая глубина : 16 бит
Метод сжатия : С потерями
Размер потока : 511 Мбайт (8%)
Заголовок : Закадровый *liosaa*
Язык : Russian
Default : Да
Forced : Нет
Аудио #2
Идентификатор : 3
Формат : AC-3
Формат/Информация : Audio Coding 3
Расширение режима : CM (complete main)
Параметр Endianness формата : Big
Идентификатор кодека : A_AC3
Продолжительность : 1 ч. 51 м.
Вид битрейта : Постоянный
Битрейт : 640 Кбит/сек
Каналы : 1 канал
Расположение каналов : Front: C
Частота : 48,0 КГц
Битовая глубина : 16 бит
Метод сжатия : С потерями
Размер потока : 511 Мбайт (8%)
Заголовок : Original 1.0
Язык : Korean
Default : Нет
Forced : Нет
Текст #1
Идентификатор : 4
Формат : UTF-8
Идентификатор кодека : S_TEXT/UTF8
Идентификатор кодека/Информация : UTF-8 Plain Text
Заголовок : *liosaa*
Язык : Russian
Default : Нет
Forced : Нет
Текст #2
Идентификатор : 5
Формат : UTF-8
Идентификатор кодека : S_TEXT/UTF8
Идентификатор кодека/Информация : UTF-8 Plain Text
Язык : English
Default : Нет
Forced : Нет

Скриншоты




Показать сообщения:    

Текущее время: 11-Дек 09:10

Часовой пояс: UTC + 3


Вы не можете начинать темы
Вы не можете отвечать на сообщения
Вы не можете редактировать свои сообщения
Вы не можете удалять свои сообщения
Вы не можете голосовать в опросах
Вы не можете прикреплять файлы к сообщениям
Вы не можете скачивать файлы