(Classical, harpsichord) Jean-Philippe Rameau - The Complete Pieces de clavecin - Mahan Esfahani - 2014, FLAC (image+.cue) lossless


 

[Цитировать]

Jean-Philippe Rameau - The Complete Pièces de clavecin - Mahan Esfahani
Жанр: Classical, harpsichord
Страна-производитель диска: UK
Год издания диска: 2014
Издатель (лейбл): Hyperion
Номер по каталогу: CDA68071/2
Дата записи: 2013, 2014
Аудиокодек: FLAC
Тип рипа: image+.cue
Битрейт аудио: lossless
Продолжительность: 2:08:27
Источник: собственный рип
Наличие сканов в содержимом раздачи: да
Треклист:
Jean-Philippe Rameau (1683-1764)
CD1
Premier livre de Pièces de clavecin (1706)
[1]-[9] Suite in A minor
Pièces de clavecin (1724)
[10]-[17] Suite in E minor
[18]-[27] Suite in D major
[28] Menuet en rondeau in C major
CD2
Nouvelles suites de Pièces de clavecin (c1729-30)
[1]-[7] Suite in A minor
[8]-[15] Suite in G minor
[16] La Dauphine
[17] Les petits marteaux
Исполнители:
Mahan Esfahani harpsichord

Лог создания рипа: CD1

Exact Audio Copy V1.1 from 23. June 2015
EAC extraction logfile from 26. February 2016, 22:02
Mahan Esfahani / Rameau - Pièces de clavecin - CD1
Used drive : HL-DT-STDVDRAM GU70N Adapter: 1 ID: 0
Read mode : Secure
Utilize accurate stream : Yes
Defeat audio cache : Yes
Make use of C2 pointers : No
Read offset correction : 48
Overread into Lead-In and Lead-Out : No
Fill up missing offset samples with silence : Yes
Delete leading and trailing silent blocks : No
Null samples used in CRC calculations : Yes
Used interface : Native Win32 interface for Win NT & 2000
Used output format : User Defined Encoder
Selected bitrate : 128 kBit/s
Quality : High
Add ID3 tag : No
Command line compressor : C:\Program Files (x86)\Exact Audio Copy\Flac\flac.exe
Additional command line options : -V -8 -T "Date=%year%" -T "Genre=%genre%" %source%
TOC of the extracted CD
Track | Start | Length | Start sector | End sector
---------------------------------------------------------
1 | 0:00.00 | 2:04.35 | 0 | 9334
2 | 2:04.35 | 4:08.17 | 9335 | 27951
3 | 6:12.52 | 1:55.03 | 27952 | 36579
4 | 8:07.55 | 1:51.47 | 36580 | 44951
5 | 9:59.27 | 2:22.49 | 44952 | 55650
6 | 12:22.01 | 2:57.49 | 55651 | 68974
7 | 15:19.50 | 1:28.41 | 68975 | 75615
8 | 16:48.16 | 1:27.71 | 75616 | 82211
9 | 18:16.12 | 1:05.41 | 82212 | 87127
10 | 19:21.53 | 3:47.30 | 87128 | 104182
11 | 23:09.08 | 1:36.25 | 104183 | 111407
12 | 24:45.33 | 3:35.74 | 111408 | 127606
13 | 28:21.32 | 2:57.24 | 127607 | 140905
14 | 31:18.56 | 2:06.52 | 140906 | 150407
15 | 33:25.33 | 2:13.68 | 150408 | 160450
16 | 35:39.26 | 1:16.60 | 160451 | 166210
17 | 36:56.11 | 2:30.74 | 166211 | 177534
18 | 39:27.10 | 2:58.25 | 177535 | 190909
19 | 42:25.35 | 5:15.24 | 190910 | 214558
20 | 47:40.59 | 3:57.01 | 214559 | 232334
21 | 51:37.60 | 1:16.12 | 232335 | 238046
22 | 52:53.72 | 1:27.36 | 238047 | 244607
23 | 54:21.33 | 5:48.56 | 244608 | 270763
24 | 60:10.14 | 2:11.22 | 270764 | 280610
25 | 62:21.36 | 3:04.64 | 280611 | 294474
26 | 65:26.25 | 0:47.63 | 294475 | 298062
27 | 66:14.13 | 1:01.10 | 298063 | 302647
28 | 67:15.23 | 0:35.26 | 302648 | 305298
Range status and errors
Selected range
Filename C:\temp\CDA68071-2 - Rameau - Pieces de clavecin\CD1\Rameau - Pieces de clavecin - CD1.wav
Peak level 53.1 %
Extraction speed 2.0 X
Range quality 99.9 %
Test CRC 682FAF43
Copy CRC 682FAF43
Copy OK
No errors occurred
AccurateRip summary
Track 1 accurately ripped (confidence 4) [CBC63669] (AR v2)
Track 2 accurately ripped (confidence 4) [E74E7C19] (AR v2)
Track 3 accurately ripped (confidence 4) [7C508128] (AR v2)
Track 4 accurately ripped (confidence 4) [1D8818CF] (AR v2)
Track 5 accurately ripped (confidence 4) [B1721D13] (AR v2)
Track 6 accurately ripped (confidence 4) [78396962] (AR v2)
Track 7 accurately ripped (confidence 4) [F6AFFD7A] (AR v2)
Track 8 accurately ripped (confidence 4) [4B11B74C] (AR v2)
Track 9 accurately ripped (confidence 4) [80FAD242] (AR v2)
Track 10 accurately ripped (confidence 4) [71A6EEF5] (AR v2)
Track 11 accurately ripped (confidence 4) [C2E374F4] (AR v2)
Track 12 accurately ripped (confidence 4) [FCFFE38A] (AR v2)
Track 13 accurately ripped (confidence 4) [3B26F08C] (AR v2)
Track 14 accurately ripped (confidence 4) [56AC3809] (AR v2)
Track 15 accurately ripped (confidence 4) [45BB967A] (AR v2)
Track 16 accurately ripped (confidence 4) [639FF329] (AR v2)
Track 17 accurately ripped (confidence 4) [1AC88B5D] (AR v2)
Track 18 accurately ripped (confidence 4) [93715641] (AR v2)
Track 19 accurately ripped (confidence 4) [EFB92152] (AR v2)
Track 20 accurately ripped (confidence 4) [B011BC69] (AR v2)
Track 21 accurately ripped (confidence 4) [2209EDFC] (AR v2)
Track 22 accurately ripped (confidence 4) [DE366833] (AR v2)
Track 23 accurately ripped (confidence 4) [C307315B] (AR v2)
Track 24 accurately ripped (confidence 4) [F29309F6] (AR v2)
Track 25 accurately ripped (confidence 4) [CEEECADB] (AR v2)
Track 26 accurately ripped (confidence 4) [42C72E4C] (AR v2)
Track 27 accurately ripped (confidence 4) [1B7C7020] (AR v2)
Track 28 accurately ripped (confidence 4) [9859891F] (AR v2)
All tracks accurately ripped
End of status report
==== Log checksum 35463F2F525236A74FAFC20E9E6FA16E943C7BD7678D2FA8C0FB4034F98C8084 ====

Лог создания рипа: CD2

Exact Audio Copy V1.1 from 23. June 2015
EAC extraction logfile from 27. February 2016, 3:14
Mahan Esfahani / Rameau - Pièces de clavecin - CD2
Used drive : HL-DT-STDVDRAM GU70N Adapter: 1 ID: 0
Read mode : Secure
Utilize accurate stream : Yes
Defeat audio cache : Yes
Make use of C2 pointers : No
Read offset correction : 48
Overread into Lead-In and Lead-Out : No
Fill up missing offset samples with silence : Yes
Delete leading and trailing silent blocks : No
Null samples used in CRC calculations : Yes
Used interface : Native Win32 interface for Win NT & 2000
Used output format : User Defined Encoder
Selected bitrate : 128 kBit/s
Quality : High
Add ID3 tag : No
Command line compressor : C:\Program Files (x86)\Exact Audio Copy\Flac\flac.exe
Additional command line options : -V -8 -T "Date=%year%" -T "Genre=%genre%" %source%
TOC of the extracted CD
Track | Start | Length | Start sector | End sector
---------------------------------------------------------
1 | 0:00.00 | 6:37.33 | 0 | 29807
2 | 6:37.33 | 3:51.28 | 29808 | 47160
3 | 10:28.61 | 2:40.22 | 47161 | 59182
4 | 13:09.08 | 4:37.66 | 59183 | 80023
5 | 17:46.74 | 2:36.56 | 80024 | 91779
6 | 20:23.55 | 1:27.48 | 91780 | 98352
7 | 21:51.28 | 7:25.65 | 98353 | 131792
8 | 29:17.18 | 1:39.61 | 131793 | 139278
9 | 30:57.04 | 1:41.18 | 139279 | 146871
10 | 32:38.22 | 3:01.45 | 146872 | 160491
11 | 35:39.67 | 4:41.69 | 160492 | 181635
12 | 40:21.61 | 3:59.34 | 181636 | 199594
13 | 44:21.20 | 2:18.13 | 199595 | 209957
14 | 46:39.33 | 5:41.27 | 209958 | 235559
15 | 52:20.60 | 3:41.15 | 235560 | 252149
16 | 56:02.00 | 2:49.09 | 252150 | 264833
17 | 58:51.09 | 1:41.71 | 264834 | 272479
Range status and errors
Selected range
Filename C:\temp\CDA68071-2 - Rameau - Pieces de clavecin\CD2\Rameau - Pieces de clavecin - CD2.wav
Peak level 75.3 %
Extraction speed 5.1 X
Range quality 99.9 %
Test CRC 2FCE47F4
Copy CRC 2FCE47F4
Copy OK
No errors occurred
AccurateRip summary
Track 1 accurately ripped (confidence 3) [DE28EBCB] (AR v2)
Track 2 accurately ripped (confidence 3) [2A549395] (AR v2)
Track 3 accurately ripped (confidence 3) [2CDCD5CE] (AR v2)
Track 4 accurately ripped (confidence 3) [61FFC341] (AR v2)
Track 5 accurately ripped (confidence 3) [7CD02250] (AR v2)
Track 6 accurately ripped (confidence 3) [368605BE] (AR v2)
Track 7 accurately ripped (confidence 3) [2C544FC5] (AR v2)
Track 8 accurately ripped (confidence 3) [E9A0C518] (AR v2)
Track 9 accurately ripped (confidence 3) [D7EF5537] (AR v2)
Track 10 accurately ripped (confidence 3) [D4556465] (AR v2)
Track 11 accurately ripped (confidence 3) [4A96FCA1] (AR v2)
Track 12 accurately ripped (confidence 3) [04759493] (AR v2)
Track 13 accurately ripped (confidence 3) [570566ED] (AR v2)
Track 14 accurately ripped (confidence 3) [CE0CFF75] (AR v2)
Track 15 accurately ripped (confidence 3) [BD00A11F] (AR v2)
Track 16 accurately ripped (confidence 3) [33C37CA0] (AR v2)
Track 17 accurately ripped (confidence 3) [22059655] (AR v2)
All tracks accurately ripped
End of status report
==== Log checksum 235E9FC7886789267A4208268E1B5FCE1E413F0882B822B87BCC026768F1DBD4 ====



Показать сообщения:    

Текущее время: 07-Дек 13:30

Часовой пояс: UTC + 3


Вы не можете начинать темы
Вы не можете отвечать на сообщения
Вы не можете редактировать свои сообщения
Вы не можете удалять свои сообщения
Вы не можете голосовать в опросах
Вы не можете прикреплять файлы к сообщениям
Вы не можете скачивать файлы