Вячеслав Невинный. Смех сквозь слёзы (Георгий Ананов) [2014, биография, кинематограф, театр, SATRip]


Статистика раздачи [Обновить пиров]
Размер:  620 MB   |    Зарегистрирован:  8 месяцев 19 дней   |    Скачан:  0 раз

Полного источника не было: Никогда

 
   
 
 
 

[Цитировать]

Вячеслав Невинный. Смех сквозь слёзы
Дата/Год выпуска: 2014
Страна: Россия
Жанр: биография, кинематограф, театр
Продолжительность: 00:49:56
Перевод: Не требуется
Русские субтитры: нет
Оригинальная аудиодорожка: русский
Режиссер: Георгий Ананов
Телеканал: Астрахань 24Описание: 30 ноября 2014 года народному артисту СССР Вячеславу Михайловичу Невинному исполнилось бы 80 лет. Себейкин из картины "Старый Новый год", Карпухин из фильма "Гараж", продавец пива из новеллы "Не может быть!", космический пират из "Гостьи из будущего"... Вячеславу Невинному были под силу любые роли. Он играл до последнего – даже когда появились проблемы со здоровьем. Много лет актер страдал сахарным диабетом. Но даже когда ему ампутировали обе стопы, он все равно выходил на сцену, пусть и в инвалидной коляске. Это было его жизненным кредо.Сэмпл: https://www.sendspace.com/file/2z5tfz
качество: SATRip
формат: AVI
Видео: Xvid 704x400 (16:9) 25fps ~1536kbps
Аудио: MP3 48000Hz stereo 192kbps

MediaInfo

General
Complete name : J:\Мои раздачи\Вячеслав Невинный. Смех сквозь слёзы.avi
Format : AVI
Format/Info : Audio Video Interleave
File size : 620 MiB
Duration : 49mn 56s
Overall bit rate : 1 736 Kbps
Video
ID : 0
Format : MPEG-4 Visual
Format profile : Advanced Simple@L5
Format settings, BVOP : Yes
Format settings, QPel : No
Format settings, GMC : No warppoints
Format settings, Matrix : Default (H.263)
Codec ID : XVID
Codec ID/Hint : XviD
Duration : 49mn 56s
Bit rate : 1 535 Kbps
Width : 704 pixels
Height : 400 pixels
Display aspect ratio : 16:9
Frame rate : 25.000 fps
Color space : YUV
Chroma subsampling : 4:2:0
Bit depth : 8 bits
Scan type : Progressive
Compression mode : Lossy
Bits/(Pixel*Frame) : 0.218
Stream size : 548 MiB (88%)
Writing library : XviD 64
Audio
ID : 1
Format : MPEG Audio
Format version : Version 1
Format profile : Layer 3
Mode : Joint stereo
Codec ID : 55
Codec ID/Hint : MP3
Duration : 49mn 56s
Bit rate mode : Constant
Bit rate : 192 Kbps
Channel(s) : 2 channels
Sampling rate : 48.0 KHz
Compression mode : Lossy
Stream size : 68.6 MiB (11%)
Alignment : Split accross interleaves
Interleave, duration : 40 ms (1.00 video frame)
Interleave, preload duration : 500 ms

Скриншоты

[teatrix.ru].t23163.torrent 
Торрент: Зарегистрирован [ 2016-03-21 00:32 ] · E65971415426B8CC43C27CDDDE3969F8AC92F214

Скачать .torrent

Скачать

13 KB

Статус: проверено
Скачан: 0 раз
Размер: 620 MB
terms.php



Быстрый ответ

Имя:

      
Для отправки сообщений необходимо включить JavaScript
Показать сообщения:    

Текущее время: 09-Дек 04:57

Часовой пояс: UTC + 3


Вы можете начинать темы
Вы можете отвечать на сообщения
Вы не можете редактировать свои сообщения
Вы не можете удалять свои сообщения
Вы не можете голосовать в опросах
Вы не можете прикреплять файлы к сообщениям
Вы можете скачивать файлы