Профессия - киноактер. Вячеслав Тихонов (Станислав Ростоцкий) [1979, Документальный, DVB]


Статистика раздачи [Обновить пиров]
Размер:  1.81 GB   |    Зарегистрирован:  8 месяцев 15 дней   |    Скачан:  0 раз

Полного источника не было: Никогда

 
   
 
 
 

[Цитировать]

Профессия - киноактер. Вячеслав Тихонов
Дата/Год выпуска: 1979
Страна: СССР
Жанр: Документальный
Продолжительность: 01:34:28
Перевод: Не требуется
Русские субтитры: нет
Оригинальная аудиодорожка: русский
Режиссер: Станислав Ростоцкий
Телеканал: Ретро
Описание: О творчестве популярного советского актёра Вячеслава Тихонова рассказывают: Борис Андреев, Эраст Гарин, Сергей Бондарчук, Всеволод Санаев, Евгений Матвеев, Алексей Баталов, Борис Бибиков, а также родители Вячеслава Васильевича.
В фильме рассказывается о детских и юношеских годах Тихонова, о его актёрской карьере, самых запоминающихся ролях в кино. Текст за кадром читает Валерий Рыжаков.
Доп. информация: В этом фильме режиссёр Станислав Ростоцкий в титрах указан под псевдонимом, как С.Степанов.
Сэмпл: https://www.sendspace.com/file/9ihqb7
качество: DVB
формат: MPG
Видео: MPEG2, 720:576, (4:3), 2503 Кбит/сек, 25,000 кадров/сек, (0.241 bit/pixel)
Аудио: MP2, 192 Кбит/сек, 48,0 КГц, 2 канала

MediaInfo

бщее
Полное имя : Профессия - киноактер.mpg
Формат : MPEG-PS
Размер файла : 1,81 Гбайт
Продолжительность : 1 ч. 34 м.
Режим общего битрейта : Переменный
Общий поток : 2750 Кбит/сек
Видео
Идентификатор : 224 (0xE0)
Формат : MPEG Video
Версия формата : Version 2
Профиль формата : Main@Main
Параметр BVOP формата : Да
Параметр матрицы формата : Выборочная
Параметр GOP формата : M=3, N=12
Структура изображения : Frame
Продолжительность : 1 ч. 34 м.
Вид битрейта : Переменный
Битрейт : 2503 Кбит/сек
Максимальный битрейт : 10000 Кбит/сек
Ширина : 720 пикселей
Высота : 576 пикселей
Соотношение сторон : 4:3
Частота кадров : 25,000 кадров/сек
Стандарт вещания : PAL
Цветовое пространство : YUV
Субдискретизация насыщенности : 4:2:0
Битовая глубина : 8 бит
Тип развёртки : Чересстрочная
Порядок развёртки : Верхнее поле первое
Метод сжатия : С потерями
Бит/(Пиксели*Кадры) : 0.241
Временной код первого кадра : 00:00:00:00
Оригинал временного кода : Group of pictures header
GOP, открыто/закрыто : Открыто
GOP, открыто/закрыто на первом кадре : Закрыто
Размер потока : 1,65 Гбайт (91%)
Аудио
Идентификатор : 192 (0xC0)
Формат : MPEG Audio
Версия формата : Version 1
Профиль формата : Layer 2
Продолжительность : 1 ч. 34 м.
Вид битрейта : Постоянный
Битрейт : 192 Кбит/сек
Каналы : 2 канала
Частота : 48,0 КГц
Метод сжатия : С потерями
Задержка видео : 15 мс.
Размер потока : 130 Мбайт (7%)
[teatrix.ru].t23164.torrent 
Торрент: Зарегистрирован [ 2016-03-21 00:32 ] · AB763691DA9C01B534DD8D1CA2BF934929B8D6F8

Скачать .torrent

Скачать

19 KB

Статус: проверено
Скачан: 0 раз
Размер: 1.81 GB
terms.php



Показать сообщения:    

Текущее время: 05-Дек 13:33

Часовой пояс: UTC + 3


Вы не можете начинать темы
Вы не можете отвечать на сообщения
Вы не можете редактировать свои сообщения
Вы не можете удалять свои сообщения
Вы не можете голосовать в опросах
Вы не можете прикреплять файлы к сообщениям
Вы можете скачивать файлы