Йона / Yona (Нир Бергман / Nir Bergman) [2014, Израиль, биопик, SATRip] + Sub Rus + Original Heb


Статистика раздачи [Обновить пиров]
Размер:  1.46 GB   |    Зарегистрирован:  8 месяцев 18 дней   |    Скачан:  1 раз

Полного источника не было: 2 месяца 25 дней

 
   
 
 
 

[Цитировать]

Йона / Yona
Страна: Израиль
Жанр: биопик
Год выпуска: 2014
Продолжительность: 01:34:34
Перевод: Субтитры
Cубтитры: русские
Оригинальная аудиодорожка: иврит
Режиссер: Нир Бергман \ Nir Bergman
В ролях: Наоми Левов, Том Хагай, Михаэль Мошонов, Лиат Горен, Шалом Михалавшвили
Описание: Начало 60-х, Йона молодая девушка из сельской местности, еще в детстве потеряла отца, павшего солдата. Она мечтает стать поэтессой, но за признание ей приходится бороться в шовинистическом мире. Ее восхождение к вершинам Израильской поэзии и мира свободной любви и наркотиков, сопровождается столь же быстрым падением в безумие и спорной практикой лечения больных с помощью ЛСД.
Фильм-биография посвящен непростой судьбе поэтессы Йоны Волах, оставившей заметный след в современной поэзии Израиля.
Доп. информация: Спасибо abraka за предоставленную ТВ запись.
Номинант на 9 премий Офир (Израильский Оскар) в 2014 включая лучший фильм и лучший режиссер.
Сэмпл: http://multi-up.com/1091479
Качество видео: SATRip
Формат видео: AVI
Видео: Xvid 704x400 25fps 2077kbps [V: mpeg4 simple profile, yuv420p, 704x400, 2077 kb/s]
Аудио: MP3 48000Hz stereo 128kbps [A: mp3, 48000 Hz, stereo, 128 kb/s]
Формат субтитров: hardsub (неотключаемые)

MediaInfo

General
Complete name : C:\Downloads\ИОНА.avi
Format : AVI
Format/Info : Audio Video Interleave
File size : 1.46 GiB
Duration : 1h 34mn
Overall bit rate : 2 216 Kbps
Writing library : VirtualDub-MPEG2 build 24600/release
Video
ID : 0
Format : MPEG-4 Visual
Format profile : Simple@L5
Format settings, BVOP : No
Format settings, QPel : No
Format settings, GMC : No warppoints
Format settings, Matrix : Default (H.263)
Codec ID : XVID
Codec ID/Hint : XviD
Duration : 1h 34mn
Bit rate : 2 078 Kbps
Width : 704 pixels
Height : 400 pixels
Display aspect ratio : 16:9
Frame rate : 25.000 fps
Color space : YUV
Chroma subsampling : 4:2:0
Bit depth : 8 bits
Scan type : Progressive
Compression mode : Lossy
Bits/(Pixel*Frame) : 0.295
Stream size : 1.37 GiB (94%)
Writing library : XviD 73
Audio
ID : 1
Format : MPEG Audio
Format version : Version 1
Format profile : Layer 3
Mode : Joint stereo
Mode extension : MS Stereo
Codec ID : 55
Codec ID/Hint : MP3
Duration : 1h 34mn
Bit rate mode : Constant
Bit rate : 128 Kbps
Channel(s) : 2 channels
Sampling rate : 48.0 KHz
Compression mode : Lossy
Stream size : 86.6 MiB (6%)
Alignment : Split accross interleaves
Interleave, duration : 40 ms (1.00 video frame)
Interleave, preload duration : 500 ms

Скриншоты





[teatrix.ru].t23165.torrent 
Торрент: Зарегистрирован [ 2016-03-21 00:32 ] · 1953F77CC703D2750ED5FE6389ABDB52AFF69C63

Скачать .torrent

Скачать

15 KB

Статус: проверено
Скачан: 1 раз
Размер: 1.46 GB
terms.php



Быстрый ответ

Имя:

      
Для отправки сообщений необходимо включить JavaScript
Показать сообщения:    

Текущее время: 08-Дек 01:21

Часовой пояс: UTC + 3


Вы можете начинать темы
Вы можете отвечать на сообщения
Вы не можете редактировать свои сообщения
Вы не можете удалять свои сообщения
Вы не можете голосовать в опросах
Вы не можете прикреплять файлы к сообщениям
Вы можете скачивать файлы