(Classical) Toivo Kuula - Complete Songs for Male Voice Choir - YL Male Voice Choir, Pasi Hyökki (Hyokki) - 2013, FLAC (image+.cue) lossless


Статистика раздачи [Обновить пиров]
Размер:  327 MB   |    Зарегистрирован:  8 месяцев 17 дней   |    Скачан:  0 раз

Полного источника не было: Никогда

 
   
 
 
 

[Цитировать]

Toivo Kuula - Complete Songs for Male Voice Choir - YL Male Voice Choir, Pasi Hyökki
Жанр: Classical
Страна-производитель диска: Finland
Год издания диска: 2013
Издатель (лейбл): Finlandia Records
Дата записи: 2012, 2013
Аудиокодек: FLAC
Тип рипа: image+.cue
Битрейт аудио: lossless
Продолжительность: 76:21
Источник: собственный рип
Наличие сканов в содержимом раздачи: да
Треклист:
Toivo Kuula (1883-1918)
[1] Metsän kuninkaalle, Op. 4/1
[2] Yllätä ikuinen yö, Op. 4/2
[3] Illalla, Op. 4/3
[4] Pappani maja, Op. 4/4
[5] Virta venhettä vie, Op. 4/5a
[6] Henteli, Op. 4/6
[7] Kullervon laulu, Op. 4/7
[8] Vanha vaimo, Op. 4/8
[9] Harvoin mä ryypyn saan, Op. 27a/1
[10] Kesäkuva, Op. 27a/2
[11] Kesän mentyä, Op. 27a/3
[12] Häät, Op. 27a/4
[13] Iltapilviä, Op. 27a/5
[14] Kolkkaa kotaa, Op. 27a/6
[15] Vappulaulu, Op. 27a/7
[16] Kevät Op. 27a/8
[17] Hautalaulu, Op. 11/5b
[18] Nuijamiesten marssi, Op. 28/1
[19] Rakentajain laulu, Op. 29c/2
[20] Me laulamme, Op. 27b/1
[21] Keinulla, Op. 27b/2
[22] Vai ei, Op. 27b/3
[23] Tuli tuttu, vanha tuttu, Op. 27b/4
[24] Iltatunnelma, Op. 27b/5
[25] Polska, Op. 27b/6
[26] Tanssilaulu, Op. 27b/7
[27] Soikaa kellot, Op. 27b/8
[28] Eteläpohjalainen piirilaulu, Op. 27b/9
[29] Mantsinsaaren balladi
[30] Barbarossan laulu, Op. 30b/4
[31] Merimieslaulu, Op. 32/11
[32] Kesäyö, Op. 34a/1
[33] Syksy, Op. 34a/2
[34] Tanssista palataan, Op. 34a/3
[35] Ne tulevat taas, Op. 34a/4
[36] Vapauden laulu, Op. 34a/5
[37] Sirkan häämatka, Op. 34a/6
[38] Hautalaulu, Op. 11/5b
Исполнители:
YL Male Voice Choir
Pasi Hyökki
conductor

Лог создания рипа

Exact Audio Copy V1.0 beta 3 from 29. August 2011
EAC extraction logfile from 13. June 2015, 15:31
YL Male Voice Choir, Pasi Hyökki / Kuula - Complete Songs for Male Voice Choir
Used drive : HL-DT-STDVDRAM GU70N Adapter: 0 ID: 0
Read mode : Secure
Utilize accurate stream : Yes
Defeat audio cache : Yes
Make use of C2 pointers : No
Read offset correction : 48
Overread into Lead-In and Lead-Out : No
Fill up missing offset samples with silence : Yes
Delete leading and trailing silent blocks : No
Null samples used in CRC calculations : Yes
Used interface : Native Win32 interface for Win NT & 2000
Used output format : User Defined Encoder
Selected bitrate : 128 kBit/s
Quality : High
Add ID3 tag : No
Command line compressor : C:\Program Files (x86)\Exact Audio Copy\Flac\flac.exe
Additional command line options : -V -8 -T "Date=%year%" -T "Genre=%genre%" %source%
TOC of the extracted CD
Track | Start | Length | Start sector | End sector
---------------------------------------------------------
1 | 0:00.00 | 1:30.32 | 0 | 6781
2 | 1:30.32 | 1:22.74 | 6782 | 13005
3 | 2:53.31 | 1:39.49 | 13006 | 20479
4 | 4:33.05 | 1:47.03 | 20480 | 28507
5 | 6:20.08 | 3:41.02 | 28508 | 45084
6 | 10:01.10 | 1:07.71 | 45085 | 50180
7 | 11:09.06 | 3:05.24 | 50181 | 64079
8 | 14:14.30 | 1:54.57 | 64080 | 72686
9 | 16:09.12 | 2:02.24 | 72687 | 81860
10 | 18:11.36 | 1:36.43 | 81861 | 89103
11 | 19:48.04 | 1:37.26 | 89104 | 96404
12 | 21:25.30 | 2:40.72 | 96405 | 108476
13 | 24:06.27 | 2:43.33 | 108477 | 120734
14 | 26:49.60 | 1:05.55 | 120735 | 125664
15 | 27:55.40 | 2:29.36 | 125665 | 136875
16 | 30:25.01 | 1:01.00 | 136876 | 141450
17 | 31:26.01 | 1:35.49 | 141451 | 148624
18 | 33:01.50 | 1:51.36 | 148625 | 156985
19 | 34:53.11 | 3:26.68 | 156986 | 172503
20 | 38:20.04 | 3:24.66 | 172504 | 187869
21 | 41:44.70 | 1:25.27 | 187870 | 194271
22 | 43:10.22 | 1:49.74 | 194272 | 202520
23 | 45:00.21 | 2:27.51 | 202521 | 213596
24 | 47:27.72 | 2:51.07 | 213597 | 226428
25 | 50:19.04 | 1:13.11 | 226429 | 231914
26 | 51:32.15 | 1:27.30 | 231915 | 238469
27 | 52:59.45 | 2:10.68 | 238470 | 248287
28 | 55:10.38 | 0:34.03 | 248288 | 250840
29 | 55:44.41 | 3:38.00 | 250841 | 267190
30 | 59:22.41 | 2:35.41 | 267191 | 278856
31 | 61:58.07 | 2:05.58 | 278857 | 288289
32 | 64:03.65 | 1:50.50 | 288290 | 296589
33 | 65:54.40 | 2:34.15 | 296590 | 308154
34 | 68:28.55 | 0:53.58 | 308155 | 312187
35 | 69:22.38 | 2:08.27 | 312188 | 321814
36 | 71:30.65 | 1:56.45 | 321815 | 330559
37 | 73:27.35 | 1:37.42 | 330560 | 337876
38 | 75:05.02 | 1:16.12 | 337877 | 343588
Range status and errors
Selected range
Filename C:\temp\Kuula - Complete Songs for Male Voice Choir\Kuula - Complete Songs for Male Voice Choir.wav
Peak level 98.8 %
Extraction speed 2.3 X
Range quality 100.0 %
Test CRC 52F97AD1
Copy CRC 52F97AD1
Copy OK
No errors occurred
AccurateRip summary
Track 1 not present in database
Track 2 not present in database
Track 3 not present in database
Track 4 not present in database
Track 5 not present in database
Track 6 not present in database
Track 7 not present in database
Track 8 not present in database
Track 9 not present in database
Track 10 not present in database
Track 11 not present in database
Track 12 not present in database
Track 13 not present in database
Track 14 not present in database
Track 15 not present in database
Track 16 not present in database
Track 17 not present in database
Track 18 not present in database
Track 19 not present in database
Track 20 not present in database
Track 21 not present in database
Track 22 not present in database
Track 23 not present in database
Track 24 not present in database
Track 25 not present in database
Track 26 not present in database
Track 27 not present in database
Track 28 not present in database
Track 29 not present in database
Track 30 not present in database
Track 31 not present in database
Track 32 not present in database
Track 33 not present in database
Track 34 not present in database
Track 35 not present in database
Track 36 not present in database
Track 37 not present in database
Track 38 not present in database
None of the tracks are present in the AccurateRip database
End of status report
==== Log checksum 26DB171F84E80AE8D97F4DDF5BF50B05F41F1B0393201A28CC64E190AAA28850 ====
[teatrix.ru].t23167.torrent 
Торрент: Зарегистрирован [ 2016-03-21 00:32 ] · 3D73A2C5C1B4D4DC27201C52C62C41AD1EA63A51

Скачать .torrent

Скачать

28 KB

Статус: проверено
Скачан: 0 раз
Размер: 327 MB
terms.php



Быстрый ответ

Имя:

      
Для отправки сообщений необходимо включить JavaScript
Показать сообщения:    

Текущее время: 07-Дек 23:20

Часовой пояс: UTC + 3


Вы можете начинать темы
Вы можете отвечать на сообщения
Вы не можете редактировать свои сообщения
Вы не можете удалять свои сообщения
Вы не можете голосовать в опросах
Вы не можете прикреплять файлы к сообщениям
Вы можете скачивать файлы