Денискины рассказы (Рустем Фесак) [2015 г., приключения, экранизация, SATRip] Российский академический молодежный театр


 

[Цитировать]

Денискины рассказы (2 действия) Название театра: Российский академический молодежный театр.
Жанр: приключения, экранизация.
Год выпуска: 2015.
Продолжительность: 00:43:57 + 00:49:12 (01:33:08).
Режиссеры: Рустем Фесак, Татьяна Александрова.
Действующие лица и исполнители:
Дениска - Алексей Бобров,
Мишка - Александр Девятьяров,
Аленка - Мария Турова,
Костик - Алексей Веселкин-мл.,
Мама - Оксана Санькова,
Папа - Алексей Мясников,
Марья Петровна - Рамиля Искандер,
Гость, Дяденька в шляпе - Александр Пахомов,
Раиса Ивановна - Вера Зотова,
Борис Сергеевич - Андрей Бажин,
Милиционер - Виталий Тимашков.
Описание:
Спектакль для всей семьи по мотивам рассказов Виктора Драгунского о приключениях Дениса Кораблева и его друзей.
"Я очень люблю лечь животом на папино колено, опустить руки и ноги и вот так висеть на колене, как белье на заборе", - сказал когда-то герой знаменитых "Денискиных рассказов". С тех пор прошло больше полувека, и мир вокруг сильно изменился, но простые истины - беззаветная дружба, искренность, честность и бескорыстие - по-прежнему в цене. Как и веселые приключения, без которых немыслимо счастливое детство - ни тогда, ни сейчас.

Дополнительная информация:
Страна: Россия .
Выпущено: © ООО "Альма Матер".
Автор: Виктор Драгунский.
Автор инсценировки: Ксения Драгунская.
Режиссер-постановщик спектакля: Рустем Фесак.
Художник: Ольга Васильева.
Композитор: Александ Девятьяров.
Художник по свету: Тарас Михалевский.
Хореограф: Дмитрий Бурукин.
Художественный руководитель театра: народный артист России Алексей Бородин.
Премьера состоялась 26 сентября 2014 года.
Режиссер телеверсии: Татьяна Александрова.
Операторы: Сергей Стариков, Олег Теодорович, Алексей Глубоковский, Виктор Доброницкий, Юля Золотова.

О спектакле.
Релиз

Качество: SATRip
Формат: AVI

Видео

1-е действие - 720x416 (1.73:1), 25 fps, XviD MPEG-4 ~2096 kbps avg, 0.28 bit/pixel
2-е действие - 720x416 (1.73:1), 25 fps, XviD MPEG-4 ~2101 kbps avg, 0.28 bit/pixel
Аудио:..44.100 kHz, MPEG Layer 3, 2 ch, ~128.00 kbps avg

Отчет Media Info

1-е действие
Общее
Полное имя : Deniskiny.rasskazy_RAMT.(2.dejstviya).2015.XviD.SATRip.fenixclub\Deniskiny.rasskazy_RAMT.2015_1-e.dejstvie.avi
Format : AVI
Format/Info : Audio Video Interleave
File size : 702 MiB
Duration : 43mn 56s
Overall bit rate : 2 234 Kbps
Video
ID : 0
Format : MPEG-4 Visual
Format profile : Advanced Simple@L5
Format settings, BVOP : 2
Format settings, QPel : No
Format settings, GMC : No warppoints
Format settings, Matrix : Custom
Codec ID : XVID
Codec ID/Hint : XviD
Duration : 43mn 56s
Bit rate : 2 096 Kbps
Width : 720 pixels
Height : 416 pixels
Display aspect ratio : 1.731
Frame rate : 25.000 fps
Color space : YUV
Chroma subsampling : 4:2:0
Bit depth : 8 bits
Scan type : Progressive
Compression mode : Lossy
Bits/(Pixel*Frame) : 0.280
Stream size : 659 MiB (94%)
Writing library : XviD 73
Audio
ID : 1
Format : MPEG Audio
Format version : Version 1
Format profile : Layer 3
Mode : Joint stereo
Mode extension : MS Stereo
Codec ID : 55
Codec ID/Hint : MP3
Duration : 43mn 54s
Source duration : 43mn 54s
Bit rate mode : Constant
Bit rate : 128 Kbps
Channel(s) : 2 channels
Sampling rate : 44.1 KHz
Compression mode : Lossy
Stream size : 40.2 MiB (6%)
Alignment : Aligned on interleaves
Interleave, duration : 40 ms (1.00 video frame)
Writing library : LAME3.99.5
2-е действие
Общее
Полное имя : Deniskiny.rasskazy_RAMT.(2.dejstviya).2015.XviD.SATRip.fenixclub\Deniskiny.rasskazy_RAMT.2015_2-e.dejstvie.avi
Format : AVI
Format/Info : Audio Video Interleave
File size : 788 MiB
Duration : 49mn 11s
Overall bit rate : 2 239 Kbps
Video
ID : 0
Format : MPEG-4 Visual
Format profile : Advanced Simple@L5
Format settings, BVOP : 2
Format settings, QPel : No
Format settings, GMC : No warppoints
Format settings, Matrix : Default (H.263)
Codec ID : XVID
Codec ID/Hint : XviD
Duration : 49mn 11s
Bit rate : 2 102 Kbps
Width : 720 pixels
Height : 416 pixels
Display aspect ratio : 1.731
Frame rate : 25.000 fps
Color space : YUV
Chroma subsampling : 4:2:0
Bit depth : 8 bits
Scan type : Progressive
Compression mode : Lossy
Bits/(Pixel*Frame) : 0.281
Stream size : 739 MiB (94%)
Writing library : XviD 73
Audio
ID : 1
Format : MPEG Audio
Format version : Version 1
Format profile : Layer 3
Mode : Joint stereo
Mode extension : MS Stereo
Codec ID : 55
Codec ID/Hint : MP3
Duration : 49mn 10s
Source duration : 49mn 10s
Bit rate mode : Constant
Bit rate : 128 Kbps
Channel(s) : 2 channels
Sampling rate : 44.1 KHz
Compression mode : Lossy
Stream size : 45.0 MiB (6%)
Alignment : Aligned on interleaves
Interleave, duration : 40 ms (1.00 video frame)
Writing library : LAME3.99r
Encoding settings : -m j -V 4 -q 3 -lowpass 17 -b 128

Скриншоты

Альтернативный хост




Показать сообщения:    

Текущее время: 05-Дек 15:32

Часовой пояс: UTC + 3


Вы не можете начинать темы
Вы не можете отвечать на сообщения
Вы не можете редактировать свои сообщения
Вы не можете удалять свои сообщения
Вы не можете голосовать в опросах
Вы не можете прикреплять файлы к сообщениям
Вы не можете скачивать файлы