Михаил Горбачев: Сегодня и Тогда (Юрий Ручкин) [2016, Документальный, HDTVRip-AVC]


Статистика раздачи [Обновить пиров]
Размер:  918 MB   |    Зарегистрирован:  8 месяцев 19 дней   |    Скачан:  0 раз

Полного источника не было: Никогда

 
   
 
 
 

[Цитировать]

Михаил Горбачев: Сегодня и Тогда- Дата/Год выпуска: 2016
Страна: Россия
Телеканал: Россия HD | «ЕДИНАЯ МЕДИА ГРУППА»
Жанр: Документальный
Продолжительность: 1:15:46
Режиссер: Юрий Ручкин
Автор и ведущий: Сергей Брилев-Описание: Гласность, ускорение, перестройка, распад СССР - все это прочно связано с именем одного человека. Михаил Горбачев, первый и последний президент СССР, отмечает 85-летие. В марте 1985 года Михаил Горбачев был избран генсеком ЦК. И уже в апреле прозвучало слово "перестройка". При нем изменился облик страны и карта современного мира. Распался Советский Союз. Работа над фильмом шла почти два года. Съемки шли по всему миру на Сицилии, Мальте, в Англии, а также глубинках России.-Автор рипа: lrn
Автор записи: RomanSin
Сэмпл: sendfile-Тип релиза: HDTVRip-AVC
Контейнер: MKV
Видео: 1024x576 (16:9), 25,000 fps, H264, ~1500 kbps avg, ~0.102 bit/pixel
Аудио: 48 kHz, AC3 Dolby Digital, 2/0 (L,R) ch, ~192.00 kbps avg-

MediaInfo

General
Unique ID : 241000417381651654980055496219702276901 (0xB54EFDF6A119F439A914C450084B3325)
Complete name : E:\uTorrent.Temp\Temp\Mihail.Gorbachev.Segodnya.i.Togda.2016.HDTVRip-AVC.x264-lrn.mkv
Format : Matroska
Format version : Version 4 / Version 2
File size : 918 MiB
Duration : 1h 15mn
Overall bit rate : 1 693 Kbps
Movie name : Mihail.Gorbachev.Segodnya.i.Togda.2016.HDTVRip-AVC.x264-lrn
Encoded date : UTC 2010-02-22 21:41:31
Writing application : mkvmerge v5.9.0 ('On The Loose') built on Dec 9 2012 15:37:01
Writing library : libebml v1.3.0 + libmatroska v1.4.0
Video
ID : 1
Format : AVC
Format/Info : Advanced Video Codec
Format profile : High@L4.1
Format settings, CABAC : Yes
Format settings, ReFrames : 8 frames
Codec ID : V_MPEG4/ISO/AVC
Duration : 1h 15mn
Bit rate : 1 500 Kbps
Width : 1 024 pixels
Height : 576 pixels
Display aspect ratio : 16:9
Frame rate mode : Constant
Frame rate : 25.000 fps
Color space : YUV
Chroma subsampling : 4:2:0
Bit depth : 8 bits
Scan type : Progressive
Bits/(Pixel*Frame) : 0.102
Stream size : 795 MiB (87%)
Writing library : x264 core 142 r2479 dd79a61
Encoding settings : cabac=1 / ref=8 / deblock=1:-3:-3 / analyse=0x3:0x133 / me=umh / subme=9 / psy=1 / psy_rd=1.00:0.00 / mixed_ref=1 / me_range=32 / chroma_me=1 / trellis=2 / 8x8dct=1 / cqm=0 / deadzone=21,11 / fast_pskip=1 / chroma_qp_offset=-2 / threads=12 / lookahead_threads=2 / sliced_threads=0 / nr=0 / decimate=1 / interlaced=0 / bluray_compat=0 / constrained_intra=0 / bframes=8 / b_pyramid=2 / b_adapt=2 / b_bias=0 / direct=3 / weightb=1 / open_gop=0 / weightp=2 / keyint=250 / keyint_min=25 / scenecut=40 / intra_refresh=0 / rc_lookahead=50 / rc=2pass / mbtree=1 / bitrate=1500 / ratetol=1.0 / qcomp=0.60 / qpmin=0 / qpmax=69 / qpstep=4 / cplxblur=20.0 / qblur=0.5 / vbv_maxrate=62500 / vbv_bufsize=78125 / nal_hrd=none / filler=0 / ip_ratio=1.40 / aq=1:1.00
Default : Yes
Forced : No
Color range : Limited
Color primaries : BT.709
Transfer characteristics : BT.709
Matrix coefficients : BT.709
Audio
ID : 2
Format : AC-3
Format/Info : Audio Coding 3
Mode extension : CM (complete main)
Format settings, Endianness : Big
Codec ID : A_AC3
Duration : 1h 15mn
Bit rate mode : Constant
Bit rate : 192 Kbps
Channel(s) : 2 channels
Channel positions : Front: L R
Sampling rate : 48.0 KHz
Frame rate : 31.250 fps (1536 spf)
Compression mode : Lossy
Stream size : 104 MiB (11%)
Language : Russian
Default : Yes
Forced : No

x264 log

raw [info]: 1024x576p 1:1 @ 25/1 fps (cfr)
x264 [info]: using SAR=1/1
x264 [info]: using cpu capabilities: MMX2 SSE2Fast SSSE3 SSE4.2 AVX
x264 [info]: profile High, level 4.1
x264 [info]: frame I:714 Avg QP:16.69 size: 65500
x264 [info]: frame P:25765 Avg QP:19.16 size: 18143
x264 [info]: frame B:87181 Avg QP:23.15 size: 3877
x264 [info]: consecutive B-frames: 1.9% 3.0% 6.6% 26.6% 29.6% 24.1% 5.5% 2.2% 0.5%
x264 [info]: mb I I16..4: 7.9% 79.5% 12.5%
x264 [info]: mb P I16..4: 2.1% 8.3% 0.6% P16..4: 44.9% 15.9% 13.1% 0.3% 0.1% skip:14.7%
x264 [info]: mb B I16..4: 0.1% 0.6% 0.0% B16..8: 30.3% 4.9% 1.1% direct: 3.8% skip:59.2% L0:40.9% L1:48.0% BI:11.1%
x264 [info]: 8x8 transform intra:76.2% inter:68.2%
x264 [info]: direct mvs spatial:96.6% temporal:3.4%
x264 [info]: coded y,uvDC,uvAC intra: 68.6% 68.3% 36.1% inter: 15.8% 15.4% 1.2%
x264 [info]: i16 v,h,dc,p: 27% 20% 4% 49%
x264 [info]: i8 v,h,dc,ddl,ddr,vr,hd,vl,hu: 15% 11% 8% 7% 11% 13% 11% 12% 11%
x264 [info]: i4 v,h,dc,ddl,ddr,vr,hd,vl,hu: 15% 11% 4% 8% 14% 15% 12% 11% 11%
x264 [info]: i8c dc,h,v,p: 42% 22% 18% 18%
x264 [info]: Weighted P-Frames: Y:3.6% UV:1.7%
x264 [info]: ref P L0: 48.8% 11.7% 18.5% 5.3% 5.4% 3.6% 4.0% 2.4% 0.3% 0.0%
x264 [info]: ref B L0: 79.6% 10.4% 4.4% 2.3% 1.7% 1.1% 0.6%
x264 [info]: ref B L1: 94.9% 5.1%
x264 [info]: kb/s:1499.64
encoded 113659 frames, 28.74 fps, 1499.64 kb/s

Скриншоты

-
[teatrix.ru].t23169.torrent 
Торрент: Зарегистрирован [ 2016-03-21 00:32 ] · D4D920804A9A0EBA2041835B172CB6BED03CB8CC

Скачать .torrent

Скачать

18 KB

Статус: проверено
Скачан: 0 раз
Размер: 918 MB
terms.php



Быстрый ответ

Имя:

      
Для отправки сообщений необходимо включить JavaScript
Показать сообщения:    

Текущее время: 09-Дек 08:53

Часовой пояс: UTC + 3


Вы можете начинать темы
Вы можете отвечать на сообщения
Вы не можете редактировать свои сообщения
Вы не можете удалять свои сообщения
Вы не можете голосовать в опросах
Вы не можете прикреплять файлы к сообщениям
Вы можете скачивать файлы