Подходцев и двое других (Сергей Алдонин) [2015 г., комедия, экранизация, SATRip] Российский академический молодежный театр


 

[Цитировать]

Подходцев и двое других (3 действия) Название театра: Российский академический молодежный театр.
Жанр: комедия, экранизация.
Год выпуска: 2015.
Продолжительность: 00:47:55 + 00:44:13 + 01:04:10 (02:36:18).
Режиссеры: Сергей Алдонин, Татьяна Александрова.
Действующие лица и исполнители:
Подходцев - Петр Красилов,
Клинков - Дмитрий Кривощапов,
Громов - Илья Исаев,
Харченко - Тарас Епифанцев,
Рыжий - Дмитрий Бурукин,
Маруся - заслуженная артистка России Татьяна Матюхова,
Марья Николаевна - Рамиля Искандер,
Анна Евгеньевна - Анна Дворжецкая,
Евдокия Антоновна - заслуженная артистка России Елена Галибина,
Брат Евдокии Антоновны - Изнаур Орцуев,
Полицейский - Артем Штепура,
Извозчик - Сергей Печенкин.
Родственники, извозчики, газетчики, жители Питера, гости на свадьбе: Александра Розовская, Александра Аронс, Анастасия Прокофьева, Антон Савватимов.
Описание:
Почти 100 лет назад - в предреволюционном Петербурге 1917-го - Аркадий Аверченко писал о себе и своих друзьях: как и мы сегодня, они не строили планов на будущее. Он писал о дружбе, о "человеческой троице, которая причудливо сошлась разными путями к одной и той же точке". Сошлись, познакомились, привыкли друг к другу и верили, что стали друзьями навсегда.
В Москве 2015-го Сергей Алдонин ставит повесть Аверченко, как историю близкую нам сегодняшним. О тех из нас, кто не хочет быть одним из многих - милых, обаятельных, но одинаковых. О тех, кто не строит планов, потому что понимает: надо радоваться настоящему.
Что получится, если собрать в одно время и в одном месте трех изобретательных, неистощимых на выдумки авантюристов? Результат непредсказуем! Доподлинно известно только, что скучно не будет и посмеяться удастся от души. Никогда не знаешь, что этой лихой троице - Подходцеву, Громову и Клинкову - взбредет в голову. То они издают юмористический журнал, а вот уже нянчатся с крикливым подкидышем, а затем решают проучить жадного и трусливого нувориша.

Дополнительная информация:
Страна: Россия .
Выпущено: © ООО "Альма Матер".
Автор: Аркадий Аверченко.
Автор инсценировки и режиссер-постановщик спектакля: Владимир Богатырев.
Художник: Виктор Шилькрот.
Композитор: Натали Плэже.
Художник по костюмам: Ирэна Белоусова.
Художник по свету: Владислав Фролов.
Пластика: Андрей Рыклин.
Хореограф: Альберт Альбертс, Дмитрий Бурукин.
Оркестр:
Фортепиано:
Алексей Кириллов.
Туба: Дмитрий Федоров, Кирилл Худяков.
Труба: Андрей Демин, Кирилл Токарев.
Кларнет: Дарья Вершинина, Марк Радеечев.
Скрипка: Андрей Иванов, Юрий Калиновский.
Художественный руководитель театра: народный артист России Алексей Бородин.
Премьера состоялась 1 апреля 2015 года.
Режиссер телеверсии: Татьяна Александрова.
Операторы: Олег Теодорович, Алексей Глубоковский, Виктор Доброницкий, Николай Александров, Антон Чуванов.

О спектакле.
Релиз


Качество: SATRip
Формат: AVI
Видео:..704x400 (1.76:1), 25 fps, XviD build 47 ~1945 kbps avg, 0.28 bit/pixel
Аудио:..44.100 kHz, MPEG Layer 3, 2 ch, ~128.00 kbps avg

Отчет Media Info

1-е действие
Общее
Полное имя : Podhodcev.i.dvoe.drugih_RAMT.(3.dejstviya).2015.XviD.SATRip.fenixclub\Podhodcev.i.dvoe.drugih_RAMT.2015_1-e.dejstvie.avi
Format : AVI
Format/Info : Audio Video Interleave
File size : 683 MiB
Duration : 47mn 55s
Overall bit rate : 1 992 Kbps
Writing application : VirtualDubModRus 1.5.10.2 (build 2542/release)
Writing library : VirtualDub build 32842/release
Video
ID : 0
Format : MPEG-4 Visual
Format profile : Advanced Simple@L5
Format settings, BVOP : 2
Format settings, QPel : No
Format settings, GMC : No warppoints
Format settings, Matrix : Default (H.263)
Codec ID : XVID
Codec ID/Hint : XviD
Duration : 47mn 55s
Bit rate : 1 854 Kbps
Width : 720 pixels
Height : 416 pixels
Display aspect ratio : 1.731
Frame rate : 25.000 fps
Color space : YUV
Chroma subsampling : 4:2:0
Bit depth : 8 bits
Scan type : Progressive
Compression mode : Lossy
Bits/(Pixel*Frame) : 0.248
Stream size : 635 MiB (93%)
Writing library : XviD 73
Audio
ID : 1
Format : MPEG Audio
Format version : Version 1
Format profile : Layer 3
Mode : Joint stereo
Mode extension : MS Stereo
Codec ID : 55
Codec ID/Hint : MP3
Duration : 47mn 54s
Bit rate mode : Constant
Bit rate : 128 Kbps
Channel(s) : 2 channels
Sampling rate : 44.1 KHz
Compression mode : Lossy
Stream size : 43.9 MiB (6%)
Alignment : Split accross interleaves
Interleave, duration : 40 ms (1.00 video frame)
Interleave, preload duratio : 500 ms
Writing library : LAME3.98.2
2-е действие
Общее
Полное имя : Podhodcev.i.dvoe.drugih_RAMT.(3.dejstviya).2015.XviD.SATRip.fenixclub\Podhodcev.i.dvoe.drugih_RAMT.2015_2-e.dejstvie.avi
Format : AVI
Format/Info : Audio Video Interleave
File size : 630 MiB
Duration : 44mn 13s
Overall bit rate : 1 992 Kbps
Writing application : VirtualDubModRus 1.5.10.2 (build 2542/release)
Writing library : VirtualDub build 32842/release
Video
ID : 0
Format : MPEG-4 Visual
Format profile : Advanced Simple@L5
Format settings, BVOP : 2
Format settings, QPel : No
Format settings, GMC : No warppoints
Format settings, Matrix : Default (H.263)
Codec ID : XVID
Codec ID/Hint : XviD
Duration : 44mn 13s
Bit rate : 1 854 Kbps
Width : 720 pixels
Height : 416 pixels
Display aspect ratio : 1.731
Frame rate : 25.000 fps
Color space : YUV
Chroma subsampling : 4:2:0
Bit depth : 8 bits
Scan type : Progressive
Compression mode : Lossy
Bits/(Pixel*Frame) : 0.248
Stream size : 586 MiB (93%)
Writing library : XviD 73
Audio
ID : 1
Format : MPEG Audio
Format version : Version 1
Format profile : Layer 3
Mode : Joint stereo
Mode extension : MS Stereo
Codec ID : 55
Codec ID/Hint : MP3
Duration : 44mn 13s
Bit rate mode : Constant
Bit rate : 128 Kbps
Channel(s) : 2 channels
Sampling rate : 44.1 KHz
Compression mode : Lossy
Stream size : 40.5 MiB (6%)
Alignment : Split accross interleaves
Interleave, duration : 40 ms (1.00 video frame)
Interleave, preload duratio : 500 ms
Writing library : LAME3.98.2
3-е действие
Общее
Полное имя : Podhodcev.i.dvoe.drugih_RAMT.(3.dejstviya).2015.XviD.SATRip.fenixclub\Podhodcev.i.dvoe.drugih_RAMT.2015_3-e.dejstvie.avi
Format : AVI
Format/Info : Audio Video Interleave
File size : 914 MiB
Duration : 1h 4mn
Overall bit rate : 1 992 Kbps
Writing application : VirtualDubModRus 1.5.10.2 (build 2542/release)
Writing library : VirtualDub build 32842/release
Video
ID : 0
Format : MPEG-4 Visual
Format profile : Advanced Simple@L5
Format settings, BVOP : 2
Format settings, QPel : No
Format settings, GMC : No warppoints
Format settings, Matrix : Default (H.263)
Codec ID : XVID
Codec ID/Hint : XviD
Duration : 1h 4mn
Bit rate : 1 854 Kbps
Width : 720 pixels
Height : 416 pixels
Display aspect ratio : 1.731
Frame rate : 25.000 fps
Color space : YUV
Chroma subsampling : 4:2:0
Bit depth : 8 bits
Scan type : Progressive
Compression mode : Lossy
Bits/(Pixel*Frame) : 0.248
Stream size : 851 MiB (93%)
Writing library : XviD 73
Audio
ID : 1
Format : MPEG Audio
Format version : Version 1
Format profile : Layer 3
Mode : Joint stereo
Mode extension : MS Stereo
Codec ID : 55
Codec ID/Hint : MP3
Duration : 1h 4mn
Bit rate mode : Constant
Bit rate : 128 Kbps
Channel(s) : 2 channels
Sampling rate : 44.1 KHz
Compression mode : Lossy
Stream size : 58.7 MiB (6%)
Alignment : Split accross interleaves
Interleave, duration : 40 ms (1.00 video frame)
Interleave, preload duratio : 500 ms
Writing library : LAME3.98.2

Скриншоты


Альтернативный хост





Показать сообщения:    

Текущее время: 04-Дек 09:09

Часовой пояс: UTC + 3


Вы не можете начинать темы
Вы не можете отвечать на сообщения
Вы не можете редактировать свои сообщения
Вы не можете удалять свои сообщения
Вы не можете голосовать в опросах
Вы не можете прикреплять файлы к сообщениям
Вы не можете скачивать файлы