Россини - Севильский цирюльник / Rossini - Il Barbiere di Siviglia (Edgardo Rocha, Chiara Amaru, lorian Sempey, Ildebrando D’Arcangelo) (Donato Renzetti / Davide Livermore) [2016, Opera, SATRip] [Italian hardsub]


 

[Цитировать]

-Rossini - Il Barbiere di Siviglia
РОССИНИ - СЕВИЛЬСКИЙ цирюльник
__________________________________________________

Год записи 11-02-2016
Лейбл: Rai5
Страна: Italy
Жанр: Live Broadcast, Opera Buffo
Язык: Итальянский
Субтитры: Итальянские (хардсаб)
Продолжительность: 02:43:00
Исполнители:
* Conte d’Almaviva – Edgardo Rocha
* Rosina – Chiara Amarù
* Figaro – Florian Sempey
* Don Bartolo – Simone Del Savio
* Don Basilio – Ildebrando D’Arcangelo
* Berta – Eleonora de la Peña
* Fiorello – Vincenzo Nizzardo
* Ambrogio – Sax Nicosia
Orchestra e Choro dell'Opera di Roma
Дирижер: Donato Renzetti
Режиссер: Davide Livermore
Качество видео: SATRip [Спасибо, alex7]
Формат/Контейнер: MKV
Видео кодек: H.264
Аудио кодек: AC3
Видео поток: 960x540, 2439 kbps, 25,000 fps.
Аудио поток: Italian, 192 kbps, 48,0 KHz, 16 bit, 2 ch

Скриншоты

MediaInfo

General
Unique ID                                : 199735536061232088904065625175086915103 (0x9643AA3C83594ED09F997BA49180DE1F)
Complete name                            : Rossini - Barbiere di Siviglia (Roma, 2016) 540p ita subs.mkv
Format                                   : Matroska
Format version                           : Version 4 / Version 2
File size                                : 3.06 GiB
Duration                                 : 2h 43mn
Overall bit rate                         : 2 684 Kbps
Encoded date                             : UTC 2016-02-20 14:06:02
Writing application                      : mkvmerge v8.3.0 ('Over the Horizon') 32bit
Writing library                          : libebml v1.3.1 + libmatroska v1.4.2
[br]
Video
ID                                       : 1
Format                                   : AVC
Format/Info                              : Advanced Video Codec
Format profile                           : Baseline@L3.1
Format settings, CABAC                   : No
Format settings, ReFrames                : 2 frames
Format settings, GOP                     : M=1, N=12
Codec ID                                 : V_MPEG4/ISO/AVC
Duration                                 : 2h 43mn
Bit rate                                 : 2 439 Kbps
Width                                    : 960 pixels
Height                                   : 540 pixels
Display aspect ratio                     : 16:9
Frame rate mode                          : Constant
Frame rate                               : 25.000 fps
Standard                                 : PAL
Color space                              : YUV
Chroma subsampling                       : 4:2:0
Bit depth                                : 8 bits
Scan type                                : Progressive
Bits/(Pixel*Frame)                       : 0.188
Stream size                              : 2.78 GiB (91%)
Default                                  : Yes
Forced                                   : No
Color range                              : Full
Color primaries                          : BT.601 PAL
Transfer characteristics                 : BT.470 System B, BT.470 System G
Matrix coefficients                      : BT.601
[br]
Audio
ID                                       : 2
Format                                   : AC-3
Format/Info                              : Audio Coding 3
Mode extension                           : CM (complete main)
Format settings, Endianness              : Big
Codec ID                                 : A_AC3
Duration                                 : 2h 43mn
Bit rate mode                            : Constant
Bit rate                                 : 192 Kbps
Channel(s)                               : 2 channels
Channel positions                        : Front: L R
Sampling rate                            : 48.0 KHz
Compression mode                         : Lossy
Stream size                              : 224 MiB (7%)
Language                                 : Italian
Default                                  : Yes
Forced                                   : No
[/spoilerх



Показать сообщения:    

Текущее время: 09-Дек 18:34

Часовой пояс: UTC + 3


Вы не можете начинать темы
Вы не можете отвечать на сообщения
Вы не можете редактировать свои сообщения
Вы не можете удалять свои сообщения
Вы не можете голосовать в опросах
Вы не можете прикреплять файлы к сообщениям
Вы не можете скачивать файлы