Алессандро Корреа / Alessandro Corrêa – Три мультфильма [2011-2012, Бразилия, авторская анимация, WEBRip]


 

[Цитировать]

Алессандро Корреа / Alessandro Corrêa – Три мультфильма
Молот ведьм / O Martelo das Feiticeiras
Страна: Бразилия
Жанр: авторская анимация
Год выпуска: 2011
Продолжительность: 00:04:20
Перевод: не требуется
Описание: Принц приобретает у ведьмы колдовской эликсир, чтобы спасти умирающего отца, но это имеет иные последствия...
Качество видео: WEBRip
Формат видео: AVI
Видео: 2285 kbps, 720х400 (16:9), 25.000 fps, MPEG-4 Visual (XviD)
Аудио: 160 kbps, 44.1 kHz, 2 channel, MPEG Audio (MP3)

MediaInfo

General
Complete name : O Martelo das Feiticeiras (2011).avi
Format : AVI
Format/Info : Audio Video Interleave
File size : 76.2 MiB
Duration : 4mn 20s
Overall bit rate : 2 457 Kbps
Writing application : Lavf55.33.100
Video
ID : 0
Format : MPEG-4 Visual
Format profile : Advanced Simple@L5
Format settings, BVOP : No
Format settings, QPel : No
Format settings, GMC : No warppoints
Format settings, Matrix : Default (H.263)
Codec ID : XVID
Codec ID/Hint : XviD
Duration : 4mn 20s
Bit rate : 2 285 Kbps
Width : 720 pixels
Height : 400 pixels
Display aspect ratio : 16:9
Frame rate : 25.000 fps
Color space : YUV
Chroma subsampling : 4:2:0
Bit depth : 8 bits
Scan type : Progressive
Compression mode : Lossy
Bits/(Pixel*Frame) : 0.317
Stream size : 70.8 MiB (93%)
Writing library : XviD 64
Audio
ID : 1
Format : MPEG Audio
Format version : Version 1
Format profile : Layer 3
Codec ID : 55
Codec ID/Hint : MP3
Duration : 4mn 19s
Bit rate mode : Constant
Bit rate : 160 Kbps
Channel(s) : 2 channels
Sampling rate : 44.1 KHz
Compression mode : Lossy
Stream size : 4.96 MiB (7%)
Alignment : Aligned on interleaves
Interleave, duration : 26 ms (0.65 video frame)
Interleave, preload duration : 26 ms
Writing library : LAME3.99.5

Скриншот c названием фильма

Скриншоты

Мобидик / Mobydick
Страна: Бразилия
Жанр: авторская анимация
Год выпуска: 2011
Продолжительность: 00:07:59
Перевод: не требуется
Описание: Капитан китобойного судна всю жизнь ищет гигантского белого кита, когда-то проглотившего его возлюбленную вместе с её пароходом. Результат поиска оказывается неожиданным...
Доп.информация: Best Animation - Festival "Animaserra" (2011)
Best Set-design & Best Music - Festival Nacional de Cinema de Petrópolis (2011)
Качество видео: WEBRip
Формат видео: AVI
Видео: 1097 kbps, 656х368 (16:9), 25.000 fps, MPEG-4 Visual (XviD)
Аудио: 128 kbps, 44.1 kHz, 2 channel, MPEG Audio (MP3)

MediaInfo

General
Complete name : Mobydick (2011).avi
Format : AVI
Format/Info : Audio Video Interleave
File size : 70.8 MiB
Duration : 7mn 59s
Overall bit rate : 1 237 Kbps
Writing application : Lavf55.33.100
Video
ID : 0
Format : MPEG-4 Visual
Format profile : Advanced Simple@L5
Format settings, BVOP : No
Format settings, QPel : No
Format settings, GMC : No warppoints
Format settings, Matrix : Default (H.263)
Codec ID : XVID
Codec ID/Hint : XviD
Duration : 7mn 59s
Bit rate : 1 097 Kbps
Width : 656 pixels
Height : 368 pixels
Display aspect ratio : 16:9
Frame rate : 25.000 fps
Color space : YUV
Chroma subsampling : 4:2:0
Bit depth : 8 bits
Scan type : Progressive
Compression mode : Lossy
Bits/(Pixel*Frame) : 0.182
Stream size : 62.8 MiB (89%)
Writing library : XviD 64
Audio
ID : 1
Format : MPEG Audio
Format version : Version 1
Format profile : Layer 3
Codec ID : 55
Codec ID/Hint : MP3
Duration : 7mn 59s
Bit rate mode : Constant
Bit rate : 128 Kbps
Channel(s) : 2 channels
Sampling rate : 44.1 KHz
Compression mode : Lossy
Stream size : 7.32 MiB (10%)
Alignment : Aligned on interleaves
Interleave, duration : 26 ms (0.65 video frame)
Interleave, preload duration : 26 ms
Writing library : LAME3.99.5

Скриншот c названием фильма

Скриншоты

Фантазм / Phantasma
Страна: Бразилия
Жанр: авторская анимация
Год выпуска: 2012
Продолжительность: 00:10:20
Перевод: не требуется
Описание: Интерпретация романа Гастона Леру "Призрак оперы", выполненная лаконично и с чёрным юмором.
Качество видео: WEBRip
Формат видео: AVI
Видео: 2344 kbps, 688х400 (1.720), 25.000 fps, MPEG-4 Visual (XviD)
Аудио: 160 kbps, 44.1 kHz, 2 channel, MPEG Audio (MP3)

MediaInfo

General
Complete name : Phantasma (2012).avi
Format : AVI
Format/Info : Audio Video Interleave
File size : 186 MiB
Duration : 10mn 20s
Overall bit rate : 2 514 Kbps
Writing library : VirtualDub build 35491/release
Video
ID : 0
Format : MPEG-4 Visual
Format profile : Advanced Simple@L5
Format settings, BVOP : 2
Format settings, QPel : No
Format settings, GMC : No warppoints
Format settings, Matrix : Default (H.263)
Codec ID : XVID
Codec ID/Hint : XviD
Duration : 10mn 20s
Bit rate : 2 344 Kbps
Width : 688 pixels
Height : 400 pixels
Display aspect ratio : 1.720
Frame rate : 25.000 fps
Color space : YUV
Chroma subsampling : 4:2:0
Bit depth : 8 bits
Scan type : Progressive
Compression mode : Lossy
Bits/(Pixel*Frame) : 0.341
Stream size : 173 MiB (93%)
Writing library : XviD 64
Audio
ID : 1
Format : MPEG Audio
Format version : Version 1
Format profile : Layer 3
Mode : Joint stereo
Codec ID : 55
Codec ID/Hint : MP3
Duration : 10mn 19s
Bit rate mode : Constant
Bit rate : 160 Kbps
Channel(s) : 2 channels
Sampling rate : 44.1 KHz
Compression mode : Lossy
Stream size : 11.8 MiB (6%)
Alignment : Split accross interleaves
Interleave, duration : 40 ms (1.00 video frame)
Interleave, preload duration : 500 ms

Скриншот c названием фильма

Скриншоты




Показать сообщения:    

Текущее время: 05-Дек 19:34

Часовой пояс: UTC + 3


Вы не можете начинать темы
Вы не можете отвечать на сообщения
Вы не можете редактировать свои сообщения
Вы не можете удалять свои сообщения
Вы не можете голосовать в опросах
Вы не можете прикреплять файлы к сообщениям
Вы не можете скачивать файлы