(Classical) Григорий Фрид - Письма Ван Гога - Сергей Яковенко, ансамбль солистов, Марк Эрмлер - 2010, FLAC (image+.cue) lossless


 

[Цитировать]

Григорий Фрид - Письма Ван Гога - Сергей Яковенко, ансамбль солистов, Марк Эрмлер
Жанр: Classical
Страна-производитель диска: Россия
Год издания диска: 2010
Издатель (лейбл): Мелодия
Номер по каталогу: MEL CD 10 01680
Дата записи: 1986
Аудиокодек: FLAC
Тип рипа: image+.cue
Битрейт аудио: lossless
Продолжительность: 73:07
Источник: собственный рип
Наличие сканов в содержимом раздачи: да
Треклист:
Григорий Фрид (1915-2012)
Письма Ван Гога
Моноопера
Либретто Г.Фрида по письмам Винсента Ван Гога к брату Тео
(перевод П.Мелковой)
[1]-[13] Часть I
[13]-[20] Часть II
Исполнители:
Сергей Яковенко баритон
Ансамбль солистов
Марк Эрмлер
дирижер

Лог создания рипа

Exact Audio Copy V1.0 beta 3 from 29. August 2011
EAC extraction logfile from 3. June 2015, 2:39
Sergey Yakovenko, Soloists Ensemble, Mark Ermler / Fried - Letters of Van Gogh
Used drive : HL-DT-STDVDRAM GU70N Adapter: 0 ID: 0
Read mode : Secure
Utilize accurate stream : Yes
Defeat audio cache : Yes
Make use of C2 pointers : No
Read offset correction : 48
Overread into Lead-In and Lead-Out : No
Fill up missing offset samples with silence : Yes
Delete leading and trailing silent blocks : No
Null samples used in CRC calculations : Yes
Used interface : Native Win32 interface for Win NT & 2000
Used output format : User Defined Encoder
Selected bitrate : 128 kBit/s
Quality : High
Add ID3 tag : No
Command line compressor : C:\Program Files (x86)\Exact Audio Copy\Flac\flac.exe
Additional command line options : -V -8 -T "Date=%year%" -T "Genre=%genre%" %source%
TOC of the extracted CD
Track | Start | Length | Start sector | End sector
---------------------------------------------------------
1 | 0:00.00 | 4:42.14 | 0 | 21163
2 | 4:42.14 | 2:37.04 | 21164 | 32942
3 | 7:19.18 | 3:55.17 | 32943 | 50584
4 | 11:14.35 | 4:15.70 | 50585 | 69779
5 | 15:30.30 | 2:21.62 | 69780 | 80416
6 | 17:52.17 | 3:01.56 | 80417 | 94047
7 | 20:53.73 | 2:24.34 | 94048 | 104881
8 | 23:18.32 | 2:28.45 | 104882 | 116026
9 | 25:47.02 | 4:07.35 | 116027 | 134586
10 | 29:54.37 | 3:31.58 | 134587 | 150469
11 | 33:26.20 | 2:48.34 | 150470 | 163103
12 | 36:14.54 | 3:30.06 | 163104 | 178859
13 | 39:44.60 | 3:14.61 | 178860 | 193470
14 | 42:59.46 | 3:30.70 | 193471 | 209290
15 | 46:30.41 | 2:49.02 | 209291 | 221967
16 | 49:19.43 | 4:55.68 | 221968 | 244160
17 | 54:15.36 | 3:23.06 | 244161 | 259391
18 | 57:38.42 | 4:36.02 | 259392 | 280093
19 | 62:14.44 | 4:33.18 | 280094 | 300586
20 | 66:47.62 | 6:20.11 | 300587 | 329097
Range status and errors
Selected range
Filename C:\temp\Fried - Letters of Van Gogh\Fried - Letters of Van Gogh.wav
Peak level 100.0 %
Extraction speed 2.2 X
Range quality 100.0 %
Test CRC 7B547336
Copy CRC 7B547336
Copy OK
No errors occurred
AccurateRip summary
Track 1 not present in database
Track 2 not present in database
Track 3 not present in database
Track 4 not present in database
Track 5 not present in database
Track 6 not present in database
Track 7 not present in database
Track 8 not present in database
Track 9 not present in database
Track 10 not present in database
Track 11 not present in database
Track 12 not present in database
Track 13 not present in database
Track 14 not present in database
Track 15 not present in database
Track 16 not present in database
Track 17 not present in database
Track 18 not present in database
Track 19 not present in database
Track 20 not present in database
None of the tracks are present in the AccurateRip database
End of status report
==== Log checksum 1797836340DDC0621E797C59893A097A934E1548BDF81788197E4E90FA6C675A ====



Показать сообщения:    

Текущее время: 06-Дек 22:53

Часовой пояс: UTC + 3


Вы не можете начинать темы
Вы не можете отвечать на сообщения
Вы не можете редактировать свои сообщения
Вы не можете удалять свои сообщения
Вы не можете голосовать в опросах
Вы не можете прикреплять файлы к сообщениям
Вы не можете скачивать файлы