Лурд / Lourdes (Джессика Хауснер / Jessica Hausner) [2009, Австрия, Франция, Германия, драма, BDRemux 1080p] MVO (R5) + 2x Sub (Rus, Eng) + Original Fre


 

[Цитировать]

Лурд / Lourdes
Страна: Австрия, Франция, Германия
Жанр: драма
Год выпуска: 2009
Продолжительность: 01:39:17
Перевод: Профессиональный (многоголосый закадровый) R5
Cубтитры: русские, английские
Оригинальная аудиодорожка: французский
-
Режиссер: Джессика Хауснер / Jessica Hausner
В ролях: Сильви Тестю, Леа Сейду, Бруно Тодескини, Элина Ловенсон, Жилетт Барбье, Герхард Либманн, Линде Прелог, Хайди Баратта, Губерт Крамар, Хельга Иллич
-
Описание: Парализованная Кристина обречена всю жизнь провести в инвалидном кресле. Желая изменить свое положение, она едет в Лурд, культовое место паломничества в Пиренеях. Однажды утром она просыпается здоровой: судя по всему, произошло чудо. Старший группы паломников, красивый сорокалетний доброволец из Мальтийского ордена, начинает проявлять к ней интерес. Она изо всех сил держится за этот неожиданный шанс на счастье, в то время как ее выздоровление вызывает у окружающих зависть и восхищение.

Тип релиза: BDRemux 1080p
Контейнер: MKV
Видео: MPEG-4 AVC / NTSC 16:9 / 1920x1080 (1,85:1) / 20879 kbps / 23,976 fps / 0.420 bit/pixel / High@L4.1
Аудио 1: Russian / AC3 / 2.0 Ch / 48 kHz / 192 kbps / 16 bit / MVO
Аудио 2: French / DTS-HD Master Audio / 5.1 Ch / 48 kHz / 3478 kbps / 24-bit (DTS Core: 5.1 Ch / 48 kHz / 1509 kbps / 24-bit) / Original
Формат субтитров: softsub (SRT)
Навигация по главам: есть

MediaInfo

Общее
Уникальный идентификатор : 229260304824341995930109028844512528529 (0xAC79EDB985050ED99E2D7C14A198C891)
Полное имя : N:\BDRemux 1080p\Lourdes.2009.BDRemux.1080p.mkv
Формат : Matroska
Версия формата : Version 4 / Version 2
Размер файла : 17,0 Гбайт
Продолжительность : 1 ч. 39 м.
Режим общего битрейта : Переменный
Общий поток : 24,6 Мбит/сек
Дата кодирования : UTC 2016-03-03 19:45:04
Программа кодирования : mkvmerge v8.9.0 ('Father Daughter') 64bit
Библиотека кодирования : libebml v1.3.3 + libmatroska v1.4.4
Видео
Идентификатор : 1
Формат : AVC
Формат/Информация : Advanced Video Codec
Профиль формата : High@L4.1
Параметр CABAC формата : Да
Параметр ReFrames формата : 4 кадра
Идентификатор кодека : V_MPEG4/ISO/AVC
Продолжительность : 1 ч. 39 м.
Вид битрейта : Переменный
Битрейт : 20,9 Мбит/сек
Максимальный битрейт : 38,0 Мбит/сек
Ширина : 1920 пикселей
Высота : 1080 пикселей
Соотношение сторон : 16:9
Режим частоты кадров : Постоянный
Частота кадров : 23,976 (24000/1001) кадра/сек
Стандарт вещания : NTSC
Цветовое пространство : YUV
Субдискретизация насыщенности : 4:2:0
Битовая глубина : 8 бит
Тип развёртки : Прогрессивная
Бит/(Пиксели*Кадры) : 0.420
Размер потока : 14,5 Гбайт (85%)
Язык : French
Default : Да
Forced : Нет
Цветовой диапазон : Limited
Основные цвета : BT.709
Характеристики трансфера : BT.709
Коэффициенты матрицы : BT.709
Аудио #1
Идентификатор : 2
Формат : AC-3
Формат/Информация : Audio Coding 3
Расширение режима : CM (complete main)
Параметр Endianness формата : Big
Идентификатор кодека : A_AC3
Продолжительность : 1 ч. 39 м.
Вид битрейта : Постоянный
Битрейт : 192 Кбит/сек
Каналы : 2 канала
Расположение каналов : Front: L R
Частота : 48,0 КГц
Частота кадров : 31,250 кадров/сек (1536 spf)
Метод сжатия : С потерями
Размер потока : 136 Мбайт (1%)
Заголовок : R5
Язык : Russian
Default : Да
Forced : Нет
Аудио #2
Идентификатор : 3
Формат : DTS
Формат/Информация : Digital Theater Systems
Профиль формата : MA / Core
Режим : 16
Параметр Endianness формата : Big
Идентификатор кодека : A_DTS
Продолжительность : 1 ч. 39 м.
Вид битрейта : Переменный / Постоянный
Битрейт : 3478 Кбит/сек / 1509 Кбит/сек
Каналы : 6 каналов
Расположение каналов : Front: L C R, Side: L R, LFE
Частота : 48,0 КГц
Частота кадров : 93,750 кадра/сек (512 spf)
Битовая глубина : 24 бит
Метод сжатия : Без потерь / Lossy
Размер потока : 2,41 Гбайт (14%)
Заголовок : Original
Язык : French
Default : Нет
Forced : Нет
Текст #1
Идентификатор : 4
Формат : UTF-8
Идентификатор кодека : S_TEXT/UTF8
Идентификатор кодека/Информация : UTF-8 Plain Text
Продолжительность : 1 ч. 30 м.
Битрейт : 39 бит/сек
Count of elements : 482
Размер потока : 26,5 Кбайт (0%)
Заголовок : RUS
Язык : Russian
Default : Нет
Forced : Нет
Текст #2
Идентификатор : 5
Формат : UTF-8
Идентификатор кодека : S_TEXT/UTF8
Идентификатор кодека/Информация : UTF-8 Plain Text
Продолжительность : 1 ч. 34 м.
Битрейт : 23 бит/сек
Count of elements : 574
Размер потока : 16,3 Кбайт (0%)
Заголовок : ENG
Язык : English
Default : Нет
Forced : Нет
Меню
00:00:00.000 : en:00:00:00.000
00:05:35.460 : en:00:05:35.460
00:08:28.508 : en:00:08:28.508
00:15:56.122 : en:00:15:56.122
00:27:09.127 : en:00:27:09.127
00:35:15.280 : en:00:35:15.280
00:42:49.734 : en:00:42:49.734
00:52:14.548 : en:00:52:14.548
01:03:58.126 : en:01:03:58.126
01:10:06.452 : en:01:10:06.452
01:23:04.188 : en:01:23:04.188
01:35:32.143 : en:01:35:32.143



Показать сообщения:    

Текущее время: 04-Дек 00:49

Часовой пояс: UTC + 3


Вы не можете начинать темы
Вы не можете отвечать на сообщения
Вы не можете редактировать свои сообщения
Вы не можете удалять свои сообщения
Вы не можете голосовать в опросах
Вы не можете прикреплять файлы к сообщениям
Вы не можете скачивать файлы