Безродные звери / Beasts of No Nation (Кэри Джоджи Фукунага / Cary Joji Fukunaga) [2015, США, драма, военный, WEB-DL 1080p] 2x AVO + Sub Rus, Eng + Original Eng


 

[Цитировать]

Безродные звери / Beasts of No Nation
Страна: США
Жанр: драма, военный
Год выпуска: 2015
Продолжительность: 02:16:32-Перевод 1: Авторский (одноголосый закадровый) Ю. Немахов
Перевод 2: Авторский (одноголосый закадровый) Ю. Сербин-Cубтитры: русские, английскиe, португальские (вшитые на надписи и язык чви)
Оригинальная аудиодорожка: английский-Режиссер: Кэри Джоджи Фукунага / Cary Joji Fukunaga
В ролях: Абрам Атта, Идрис Эльба, Эммануэль Аффадзи, Рики Аделайтор, Эндрю Эдот, Вера Ниаркоа Антви, Ама К. Абебрезе, Кобина Амисса-Сэм, Френсис Уэдди, Фред Нии Амуджи
Описание: Фильм расскажет о приключениях юноши по имени Агу, которого гражданская война на западе Африки принуждает вступить в команду наемников. Судьбе мало того, что парень пережил гибель отца и исчезновение сестры и матери, она погружает его в жизнь, полную насилия и жестокости.-Тип релиза: WEB-DL 1080p
Контейнер: MKV-Видео: MPEG4 Video (H264) 1920x808p, ~ 8300 kbps, 23.976 fps, 0.223 Bits/(Pixel*Frame)-Аудио 1: Russian: 48 kHz, AC3, 3/2 (L,C,R,l,r) + LFE ch, ~640.00 kbps avg | Ю. Немахов
Аудио 2: Russian: 48 kHz, AC3, 3/2 (L,C,R,l,r) + LFE ch, ~640.00 kbps avg | Ю. Сербин
Аудио 3: English: 48 kHz, AC3, 3/2 (L,C,R,l,r) + LFE ch, ~640.00 kbps avg
Присутствует ненормативная лексикаДополнительноЦитата:
Релиз HDCLUB
Переводы Ю.Сербина и Ю.Немахова выполнены в рамках сервиса "Озвучивание".. Спонсоры - HDCLUB: stallk, tambov68, Dema2222, Dervish, vbilas, viryzhkov, Mr_Grakeson, innominate, Тряска, malyaka, Fullsport, E180.RU: oleg-k, luka69, foxlight, chontvari, Некрасов, hdrmv12, Nadoelo, magvai, Volshebnik, ylnian1986, Ken, DMX-92, Palmer Eldritch, SHIP.

MediaInfo

General
Уникальный идентификатор : 190585262568928602311884984103491241401 (0x8F6162EC07D1FA62A870A9EA2F3285B9)
Полное имя : D:\Веаsts.оf.Nо.Nаtiоn.1080p.WEB-DL.mkv
Формат : Matroska
Версия формата : Version 2
Размер файла : 9.61 GiB
Продолжительность : 2h 16mn
Общий поток : 10.1 Mbps
Дата кодирования : UTC 2016-03-04 05:50:21
Программа кодирования : mkvmerge v5.6.0 ('Kenya Kane') built on May 27 2012 16:44:04
Библиотека кодирования : libebml v1.2.3 + libmatroska v1.3.0
Attachements : cover.jpg
DURATION : 02:10:27.360000000
NUMBER_OF_FRAMES : 1894
NUMBER_OF_BYTES : 60333
_STATISTICS_WRITING_APP : mkvmerge v8.5.1 ('Where you lead I will follow') 64bit
_STATISTICS_WRITING_DATE_UTC : 2016-03-03 17:58:00
_STATISTICS_TAGS : BPS DURATION NUMBER_OF_FRAMES NUMBER_OF_BYTES
Video
Идентификатор : 1
Формат : AVC
Формат/Информация : Advanced Video Codec
Профиль формата : High@L4.1
Параметр CABAC формата : Yes
Параметр ReFrames формата : 5 frames
Идентификатор кодека : V_MPEG4/ISO/AVC
Продолжительность : 2h 16mn
Битрейт : 8 300 Kbps
Ширина : 1 920 pixels
Высота : 808 pixels
Соотношение сторон : 2.40:1
Режим частоты кадров : Constant
Частота кадров : 23.976 fps
Цветовое пространство : YUV
Субдискретизация насыщенности : 4:2:0
Битовая глубина : 8 bits
Тип развёртки : Progressive
Бит/(Пиксели*Кадры) : 0.223
Размер потока : 7.59 GiB (79%)
Библиотека кодирования : x264 core 148 r2597 e86f3a1
Настройки программы : cabac=1 / ref=5 / deblock=1:-2:-1 / analyse=0x3:0x133 / me=umh / subme=9 / psy=1 / psy_rd=1.00:0.15 / mixed_ref=1 / me_range=16 / chroma_me=1 / trellis=2 / 8x8dct=1 / cqm=0 / deadzone=21,11 / fast_pskip=1 / chroma_qp_offset=-3 / threads=12 / lookahead_threads=2 / sliced_threads=0 / nr=0 / decimate=1 / interlaced=0 / bluray_compat=0 / constrained_intra=0 / bframes=3 / b_pyramid=2 / b_adapt=2 / b_bias=0 / direct=3 / weightb=1 / open_gop=0 / weightp=2 / keyint=240 / keyint_min=23 / scenecut=40 / intra_refresh=0 / rc_lookahead=60 / rc=abr / mbtree=1 / bitrate=8300 / ratetol=1.0 / qcomp=0.60 / qpmin=0 / qpmax=69 / qpstep=4 / vbv_maxrate=62500 / vbv_bufsize=78125 / nal_hrd=none / filler=0 / ip_ratio=1.40 / aq=3:1.00
Язык : English
Default : No
Forced : No
Основные цвета : BT.709
Характеристики трансфера : BT.709
Коэффициенты матрицы : BT.709
colour_range : Limited
DURATION : 02:16:32.685000000
NUMBER_OF_FRAMES : 196428
NUMBER_OF_BYTES : 8349605680
_STATISTICS_WRITING_APP : mkvmerge v8.5.1 ('Where you lead I will follow') 64bit
_STATISTICS_WRITING_DATE_UTC : 2016-03-03 17:58:00
_STATISTICS_TAGS : BPS DURATION NUMBER_OF_FRAMES NUMBER_OF_BYTES
Audio #1
Идентификатор : 2
Формат : AC-3
Формат/Информация : Audio Coding 3
Расширение режима : CM (complete main)
Параметр Endianness формата : Big
Идентификатор кодека : A_AC3
Продолжительность : 2h 16mn
Вид битрейта : Constant
Битрейт : 640 Kbps
Каналы : 6 channels
Расположение каналов : Front: L C R, Side: L R, LFE
Частота : 48.0 KHz
Битовая глубина : 16 bits
Метод сжатия : Lossy
Размер потока : 625 MiB (6%)
Заголовок : AC3 5.1 @ 640 kbps - AVO, Y.Nemahov
Язык : Russian
Default : Yes
Forced : No
Audio #2
Идентификатор : 3
Формат : AC-3
Формат/Информация : Audio Coding 3
Расширение режима : CM (complete main)
Параметр Endianness формата : Big
Идентификатор кодека : A_AC3
Продолжительность : 2h 16mn
Вид битрейта : Constant
Битрейт : 640 Kbps
Каналы : 6 channels
Расположение каналов : Front: L C R, Side: L R, LFE
Частота : 48.0 KHz
Битовая глубина : 16 bits
Метод сжатия : Lossy
Размер потока : 625 MiB (6%)
Заголовок : AC3 5.1 @ 640 kbps - AVO, Y.Serbin
Язык : Russian
Default : No
Forced : No
Audio #3
Идентификатор : 4
Формат : AC-3
Формат/Информация : Audio Coding 3
Расширение режима : CM (complete main)
Параметр Endianness формата : Big
Идентификатор кодека : A_AC3
Продолжительность : 2h 16mn
Вид битрейта : Constant
Битрейт : 640 Kbps
Каналы : 6 channels
Расположение каналов : Front: L C R, Side: L R, LFE
Частота : 48.0 KHz
Битовая глубина : 16 bits
Метод сжатия : Lossy
Задержка видео : 6ms
Размер потока : 625 MiB (6%)
Заголовок : AC3 5.1 @ 640 kbps
Язык : English
Default : No
Forced : No
Text #1
Идентификатор : 5
Формат : UTF-8
Идентификатор кодека : S_TEXT/UTF8
Идентификатор кодека/Информация : UTF-8 Plain Text
Язык : Russian
Default : No
Forced : No
Text #2
Идентификатор : 6
Формат : UTF-8
Идентификатор кодека : S_TEXT/UTF8
Идентификатор кодека/Информация : UTF-8 Plain Text
Язык : English
Default : No
Forced : No

Скриншоты




Показать сообщения:    

Текущее время: 07-Дек 17:32

Часовой пояс: UTC + 3


Вы не можете начинать темы
Вы не можете отвечать на сообщения
Вы не можете редактировать свои сообщения
Вы не можете удалять свои сообщения
Вы не можете голосовать в опросах
Вы не можете прикреплять файлы к сообщениям
Вы не можете скачивать файлы