Гончие Ада / Cães do Inferno (Алессандро Корреа / Alessandro Corrêa) [2014, Бразилия, авторская анимация, WEBRip-AVC]


 

[Цитировать]

Гончие Ада / Cães do Inferno
Страна: Бразилия
Жанр: авторская анимация
Год выпуска: 2014
Продолжительность: 00:12:21
Перевод: не требуется
Cубтитры: нет
Режиссёр: Алессандро Корреа / Alessandro Corrêa
Описание: Бандит-мотоциклист, вернувшийся из преисподней, по договорённости с адским архивариусом доставляет ему души преступников. Однажды ему выпадает возможность поквитаться со своим другом, из-за предательства которого погиб он сам. Но это ещё и возможность спастись...
Качество видео: WEBRip-AVC
Формат видео: MP4
Видео: 1872 kbps, 1280х720 (16:9), 29.970 fps, AVC (High@L3.1)
Аудио: 192 kbps, 44.1 kHz, 2 channels, AAC (LC)

MediaInfo

General
Complete name : Cães do Inferno (2014).mp4
Format : MPEG-4
Format profile : Base Media / Version 2
Codec ID : mp42
File size : 183 MiB
Duration : 12mn 21s
Overall bit rate mode : Variable
Overall bit rate : 2 067 Kbps
Encoded date : UTC 2014-07-29 17:27:26
Tagged date : UTC 2014-07-29 17:27:26
gsst : 0
gstd : 741086
gssd : B4A7DD828MM1438876649610348
gshh : r8---sn-cg07luel.googlevideo.com
Video
ID : 1
Format : AVC
Format/Info : Advanced Video Codec
Format profile : High@L3.1
Format settings, CABAC : Yes
Format settings, ReFrames : 1 frame
Format settings, GOP : M=1, N=60
Codec ID : avc1
Codec ID/Info : Advanced Video Coding
Duration : 12mn 21s
Bit rate : 1 872 Kbps
Maximum bit rate : 8 585 Kbps
Width : 1 280 pixels
Height : 720 pixels
Display aspect ratio : 16:9
Frame rate mode : Constant
Frame rate : 29.970 fps
Color space : YUV
Chroma subsampling : 4:2:0
Bit depth : 8 bits
Scan type : Progressive
Bits/(Pixel*Frame) : 0.068
Stream size : 165 MiB (91%)
Tagged date : UTC 2014-07-29 17:27:42
Audio
ID : 2
Format : AAC
Format/Info : Advanced Audio Codec
Format profile : LC
Codec ID : 40
Duration : 12mn 21s
Bit rate mode : Variable
Bit rate : 192 Kbps
Maximum bit rate : 204 Kbps
Channel(s) : 2 channels
Channel positions : Front: L R
Sampling rate : 44.1 KHz
Compression mode : Lossy
Stream size : 17.0 MiB (9%)
Title : IsoMedia File Produced by Google, 5-11-2011
Encoded date : UTC 2014-07-29 17:27:36
Tagged date : UTC 2014-07-29 17:27:42

Скриншот c названием фильма

Скриншоты




Показать сообщения:    

Текущее время: 06-Дек 15:13

Часовой пояс: UTC + 3


Вы не можете начинать темы
Вы не можете отвечать на сообщения
Вы не можете редактировать свои сообщения
Вы не можете удалять свои сообщения
Вы не можете голосовать в опросах
Вы не можете прикреплять файлы к сообщениям
Вы не можете скачивать файлы