(Classical, contemporary) Ellen Taaffe Zwilich - Millennium Fantasy; Images; Peanuts® Gallery - Jeffrey Biegel, Read Gainsford, Heidi Louise Williams, Florida State University Symphony Orchestra, Alexander Jimenez - 2010, FLAC (image+.cue) lossless


 

[Цитировать]

Ellen Taaffe Zwilich - Millennium Fantasy; Images; Peanuts® Gallery - Jeffrey Biegel, Read Gainsford, Heidi Louise Williams, Florida State University Symphony Orchestra, Alexander Jiménez
Жанр: Classical, contemporary
Год издания диска: 2010
Издатель (лейбл): Naxos
Номер по каталогу: 8.559656
Дата записи: 2009
Аудиокодек: FLAC
Тип рипа: image+.cue
Битрейт аудио: lossless
Продолжительность: 53:09
Источник: собственный рип
Наличие сканов в содержимом раздачи: да
Треклист:
Ellen Taaffe Zwilich (b.1939)
[1]-[2] Millennium Fantasy (2000)
[3]-[7] Images (1986)
[8]-[13] Peanuts® Gallery (1996)
Исполнители:
Jeffrey Biegel piano ([1]-[2], [8]-[13])
Read Gainsford piano ([3]-[7])
Heidi Louise Williams piano ([3]-[7])
Florida State University Symphony Orchestra
Alexander Jiménez

Лог создания рипа

Exact Audio Copy V1.1 from 23. June 2015
EAC extraction logfile from 27. February 2016, 22:00
Florida State University SO, Alexander Jiménez / Zwillich - Millennium Fantasy
Used drive : HL-DT-STDVDRAM GU70N Adapter: 1 ID: 0
Read mode : Secure
Utilize accurate stream : Yes
Defeat audio cache : Yes
Make use of C2 pointers : No
Read offset correction : 48
Overread into Lead-In and Lead-Out : No
Fill up missing offset samples with silence : Yes
Delete leading and trailing silent blocks : No
Null samples used in CRC calculations : Yes
Used interface : Native Win32 interface for Win NT & 2000
Used output format : User Defined Encoder
Selected bitrate : 128 kBit/s
Quality : High
Add ID3 tag : No
Command line compressor : C:\Program Files (x86)\Exact Audio Copy\Flac\flac.exe
Additional command line options : -V -8 -T "Date=%year%" -T "Genre=%genre%" %source%
TOC of the extracted CD
Track | Start | Length | Start sector | End sector
---------------------------------------------------------
1 | 0:00.00 | 7:59.61 | 0 | 35985
2 | 7:59.61 | 12:22.54 | 35986 | 91689
3 | 20:22.40 | 3:47.40 | 91690 | 108754
4 | 24:10.05 | 3:43.65 | 108755 | 125544
5 | 27:53.70 | 1:39.29 | 125545 | 132998
6 | 29:33.24 | 3:52.51 | 132999 | 150449
7 | 33:26.00 | 4:58.08 | 150450 | 172807
8 | 38:24.08 | 2:13.55 | 172808 | 182837
9 | 40:37.63 | 2:29.31 | 182838 | 194043
10 | 43:07.19 | 2:24.42 | 194044 | 204885
11 | 45:31.61 | 2:54.69 | 204886 | 218004
12 | 48:26.55 | 2:25.24 | 218005 | 228903
13 | 50:52.04 | 2:14.74 | 228904 | 239027
Range status and errors
Selected range
Filename C:\temp\Naxos_8.559656 - Zwilich - Millennium Fantasy\Zwillich - Millennium Fantasy.wav
Peak level 100.0 %
Extraction speed 4.9 X
Range quality 100.0 %
Test CRC 5D71F1EC
Copy CRC 5D71F1EC
Copy OK
No errors occurred
AccurateRip summary
Track 1 not present in database
Track 2 not present in database
Track 3 not present in database
Track 4 not present in database
Track 5 not present in database
Track 6 not present in database
Track 7 not present in database
Track 8 not present in database
Track 9 not present in database
Track 10 not present in database
Track 11 not present in database
Track 12 not present in database
Track 13 not present in database
None of the tracks are present in the AccurateRip database
End of status report
==== Log checksum 3F3B8EFD38E859E34EFDD1D7E2E95705CC2BD1E87EE5F3E49C3515FBB664CB54 ====



Показать сообщения:    

Текущее время: 05-Дек 05:32

Часовой пояс: UTC + 3


Вы не можете начинать темы
Вы не можете отвечать на сообщения
Вы не можете редактировать свои сообщения
Вы не можете удалять свои сообщения
Вы не можете голосовать в опросах
Вы не можете прикреплять файлы к сообщениям
Вы не можете скачивать файлы