Полоса допустимого (Сергей Сатыренко) [1980 г., драма, телеспектакль, TVRip]


 

[Цитировать]

Полоса допустимого Год выпуска: 1980.
Жанр: драма, телеспектакль.
Продолжительность: 01:17:42.
Режиссеры: Сергей Сатыренко.
Действующие лица и исполнители:
Саня - заслуженный артист РСФСР Юрий Васильев,
Вадим - Алексей Инжеватов,
Катя - Людмила Ярошенко,
Артур - Евгений Графкин,
Батурин - заслуженный артист РСФСР Геннадий Крынкин,
Зверев - заслуженный артист РСФСР Константин Захаров,
Макарчук - Виталий Ованесов,
Булкин - Владимир Бурлаков,
Синютин - Вадим Завьялов,
Рудаков - Виктор Чибинцев,
Марина - Софья Гуськова,
Лиля - Н. Меньшова,
Вика - Валентина Ваилкова.
Описание:
Телеспектакль на производственную тему.
Действие происходит на сибирской стройке. События разворачиваются вокруг молодого начальника монтажного участка Александра Смирнова.

Дополнительная информация:
Страна: СССР .
Автор: Гарий Немченко.
Режиссер: Сергей Сатыренко.
Оператор-постановщик: Борис Лазарев.
Художник-постановщик: Ольга Левина.
Композитор: Олег Галахов.
Релиз

Качество: TVRip
Формат: AVI
Видео: 688x512 (1.34:1), 25 fps, XviD MPEG-4 ~1204 kbps avg, 0.14 bit/pixel
Аудио: 44.100 kHz, MPEG Layer 3, 2 ch, ~128.00 kbps avg

Отчет MI

General
Complete name : Polosa.dopustimogo.1980.XviD.TVRip.fenixclub.avi
Format : AVI
Format/Info : Audio Video Interleave
File size : 746 MiB
Duration : 1h 17mn
Overall bit rate : 1 342 Kbps
Writing library : VirtualDub build 32842/release
Video
ID : 0
Format : MPEG-4 Visual
Format profile : Advanced Simple@L5
Format settings, BVOP : 2
Format settings, QPel : No
Format settings, GMC : No warppoints
Format settings, Matrix : Default (H.263)
Codec ID : XVID
Codec ID/Hint : XviD
Duration : 1h 17mn
Bit rate : 1 204 Kbps
Width : 688 pixels
Height : 512 pixels
Display aspect ratio : 4:3
Frame rate : 25.000 fps
Color space : YUV
Chroma subsampling : 4:2:0
Bit depth : 8 bits
Scan type : Progressive
Compression mode : Lossy
Bits/(Pixel*Frame) : 0.137
Stream size : 669 MiB (90%)
Writing library : XviD 73
Audio
ID : 1
Format : MPEG Audio
Format version : Version 1
Format profile : Layer 3
Mode : Joint stereo
Mode extension : MS Stereo
Codec ID : 55
Codec ID/Hint : MP3
Duration : 1h 17mn
Bit rate mode : Constant
Bit rate : 128 Kbps
Channel(s) : 2 channels
Sampling rate : 44.1 KHz
Compression mode : Lossy
Stream size : 71.1 MiB (10%)
Alignment : Split accross interleaves
Interleave, duration : 40 ms (1.00 video frame)
Interleave, preload duratio : 500 ms
Writing library : LAME3.98.2

Скриншоты

Альтернативный хост




Показать сообщения:    

Текущее время: 06-Дек 13:16

Часовой пояс: UTC + 3


Вы не можете начинать темы
Вы не можете отвечать на сообщения
Вы не можете редактировать свои сообщения
Вы не можете удалять свои сообщения
Вы не можете голосовать в опросах
Вы не можете прикреплять файлы к сообщениям
Вы не можете скачивать файлы