Татьяна Доронина. Монолог в четырех частях (Марина Лузгина) [2014, Документальный, DVB]


Статистика раздачи [Обновить пиров]
Размер:  2.82 GB   |    Зарегистрирован:  8 месяцев 18 дней   |    Скачан:  0 раз

Полного источника не было: Никогда

 
   
 
 
 

[Цитировать]

Татьяна Доронина. Монолог в четырех частях
Дата/Год выпуска: 2014
Страна: Россия
Жанр: Документальный
Продолжительность: 4 х ~00:39:00
Перевод: Не требуется
Русские субтитры: нет
Оригинальная аудиодорожка: русский
Режиссер: Марина Лузгина
Телеканал: Ретро
Описание: Татьяна Доронина родилась в Ленинграде, куда ее родители переехали из Ярославской области города Данилова. Именно там учительница в местной школе Валентина Васильевна Харченко привила ей любовь к поэзии, тем самым, возможно, изменив всю ее жизнь. В пятнадцать лет Доронина поступила в лучший театральный вуз страны Школу-студию МХАТ. Среди однокурсников Татьяна встретила свою первую любовь актера Олега Басилашвили, ставшего ее первым мужем, и свои первые шаги на сцене Ленинградского театра им. Ленинского комсомола она делала вместе с ним. Несколько лет Доронина работает с гениальным режиссером Георгием Товстоноговым. Затем переезжает в Москву и работает с выдающимся режиссером Андреем Гончаровым. Самый драматичный этап в судьбе Татьяны Дорониной - раздел Московского художественного театра. В этот период она возглавляет МХАТ им. Горького и по сегодняшний день является его бессменным руководителем.
Сэмпл: https://www.sendspace.com/file/1cavta
качество: DVB
формат: MPG
Видео: MPEG2, 720:576, (4:3), 2699 Кбит/сек, 25,000 кадров/сек, (0.260 bit/pixel)
Аудио: MP2, 192 Кбит/сек, 48,0 КГц, 2 канала

Список выпусков/серий

01. Начало
02. Театр
03. Кинематограф
04. МХАТ

MediaInfo

Общее
Полное имя :Татьяна Доронина. Монолог в четырех частях.mpg
Формат : MPEG-PS
Размер файла : 808 Мбайт
Продолжительность : 38 м.
Режим общего битрейта : Переменный
Общий поток : 2949 Кбит/сек
Видео
Идентификатор : 224 (0xE0)
Формат : MPEG Video
Версия формата : Version 2
Профиль формата : Main@Main
Параметр BVOP формата : Да
Параметр матрицы формата : Выборочная
Параметр GOP формата : M=3, N=12
Структура изображения : Frame
Продолжительность : 38 м.
Вид битрейта : Переменный
Битрейт : 2699 Кбит/сек
Максимальный битрейт : 10000 Кбит/сек
Ширина : 720 пикселей
Высота : 576 пикселей
Соотношение сторон : 4:3
Частота кадров : 25,000 кадров/сек
Стандарт вещания : PAL
Цветовое пространство : YUV
Субдискретизация насыщенности : 4:2:0
Битовая глубина : 8 бит
Тип развёртки : Чересстрочная
Порядок развёртки : Верхнее поле первое
Метод сжатия : С потерями
Бит/(Пиксели*Кадры) : 0.260
Временной код первого кадра : 00:00:00:00
Оригинал временного кода : Group of pictures header
GOP, открыто/закрыто : Открыто
GOP, открыто/закрыто на первом кадре : Закрыто
Размер потока : 740 Мбайт (91%)
Аудио
Идентификатор : 192 (0xC0)
Формат : MPEG Audio
Версия формата : Version 1
Профиль формата : Layer 2
Продолжительность : 38 м.
Вид битрейта : Постоянный
Битрейт : 192 Кбит/сек
Каналы : 2 канала
Частота : 48,0 КГц
Метод сжатия : С потерями
Задержка видео : 7 мс.
Размер потока : 52,6 Мбайт (7%)
[teatrix.ru].t23193.torrent 
Торрент: Зарегистрирован [ 2016-03-21 00:31 ] · E1F3CC69A1BF41BF115950F42FF0C158E149BB53

Скачать .torrent

Скачать

15 KB

Статус: проверено
Скачан: 0 раз
Размер: 2.82 GB
terms.php



Быстрый ответ

Имя:

      
Для отправки сообщений необходимо включить JavaScript
Показать сообщения:    

Текущее время: 08-Дек 14:54

Часовой пояс: UTC + 3


Вы можете начинать темы
Вы можете отвечать на сообщения
Вы не можете редактировать свои сообщения
Вы не можете удалять свои сообщения
Вы не можете голосовать в опросах
Вы не можете прикреплять файлы к сообщениям
Вы можете скачивать файлы