(Classical)J.Haydn - Symphony No.104 (J.Dafov), Trumpet concerto (I.Kozhukharov), Cello concerto No.1 (S.Popov, H.Blech)-1999, FLAC (image+.cue)


 

[Цитировать]

Йозеф Гайдн (Franz Joseph Haydn) Симфония № 104 "Лондонская", Концерт для трубы с оркестром Й. Кожухаров труба, оркестр Софийской филармонии, дирижер Й. Дафов. Концерт для виолончели с оркестром №1 С. Попов виолончель, оркестр солистов Лондонской филармонии, дирижер Г.Блех
Жанр: Classical
Страна-производитель диска: RUSSIA
Год издания диска: 1999
Издатель (лейбл): АТ MUSIC
Номер по каталогу: АТ 124
Дата записи: 1732-1809
Аудиокодек: FLAC
Тип рипа: image+.cue
Битрейт аудио: lossless
Продолжительность: 63:40:35
Источник: собственный рип
Наличие сканов в содержимом раздачи: нет

Треклист:
Симфония № 104 "Лондонская"
1.Adagio, Allegro 8:20
2.Andante 9:20
3.Menuetto. Allegro & Trio 5:00
4.Finale. spirituoso 6:30
Й. Кожухаров труба, оркестр Софийской филармонии, дирижер Й. Дафов
Концерт для трубы с оркестром
5.Allegro 6:10
6.Andante 3:45
7.Finale. Allegro 4:45
Й. Кожухаров труба, оркестр Софийской филармонии, дирижер Й. Дафов
Концерт для виолончели с оркестром №1
8.Moderato 9:30
9.Adagio 9:00
10.Allegro Molto 7:59
С. Попов виолончель, оркестр солистов Лондонской филармонии, дирижер Г.Блех

Лог создания рипа

Exact Audio Copy V1.0 beta 6 from 9. April 2015
Отчёт EAC об извлечении, выполненном 4. марта 2016, 23:44
Various Artists / Classics Collection: Franz Joseph Haydn
Дисковод: TSSTcorpCDDVDW TS-L633C Adapter: 1 ID: 0
Режим чтения : Достоверность
Использование точного потока : Да
Отключение кэша аудио : Да
Использование указателей C2 : Нет
Коррекция смещения при чтении : 6
Способность читать области Lead-in и Lead-out : Нет
Заполнение пропущенных сэмплов тишиной : Да
Удаление блоков с тишиной в начале и конце : Нет
При вычислениях CRC использовались нулевые сэмплы : Да
Интерфейс : Встроенный Win32-интерфейс для Win NT/2000
Выходной формат : Пользовательский кодировщик
Выбранный битрейт : 768 kBit/s
Качество : Высокий
Добавление ID3-тега : Нет
Утилита сжатия : C:\Program Files (x86)\Exact Audio Copy\FLAC\FLAC.EXE
Дополнительные параметры : -6 -V -T "ARTIST=%artist%" -T "TITLE=%title%" -T "ALBUM=%albumtitle%" -T "DATE=%year%" -T "TRACKNUMBER=%tracknr%" -T "GENRE=%genre%" -T "COMMENT=%comment%" -T "BAND=%albuminterpret%" -T "ALBUMARTIST=%albuminterpret%" -T "COMPOSER=%composer%" %haslyrics%--tag-from-file=LYRICS="%lyricsfile%"%haslyrics% -T "DISCNUMBER=%cdnumber%" -T "TOTALDISCS=%totalcds%" -T "TOTALTRACKS=%numtracks%" %hascover%--picture="%coverfile%"%hascover% %source% -o %dest%
TOC извлечённого CD
Трек | Старт | Длительность | Начальный сектор | Конечный сектор
---------------------------------------------------------------------
1 | 0:00.33 | 8:27.17 | 33 | 38074
2 | 8:27.50 | 9:31.50 | 38075 | 80949
3 | 17:59.25 | 5:09.68 | 80950 | 104192
4 | 23:09.18 | 6:39.72 | 104193 | 134189
5 | 29:49.15 | 6:11.43 | 134190 | 162057
6 | 36:00.58 | 3:49.67 | 162058 | 179299
7 | 39:50.50 | 4:45.18 | 179300 | 200692
8 | 44:35.68 | 9:55.10 | 200693 | 245327
9 | 54:31.03 | 9:09.32 | 245328 | 286534
10 | 63:40.35 | 7:10.15 | 286535 | 318799
Характеристики диапазона извлечения и сообщения об ошибках
Выбранный диапазон
Имя файла D:\MUZON\Классика\Franz Joseph Haydn.wav
Пиковый уровень 93.1 %
Скорость извлечения 3.2 X
Качество диапазона 100.0 %
CRC теста 23660543
CRC копии 23660543
Копирование... OK
Ошибок не произошло
Конец отчёта
==== Контрольная сумма отчёта E10FEA72809963F1B1B8E59D0ADB579154370DFF37D28E6EFA3524E3A3D1F61F ====

Содержание индексной карты (.CUE)

REM GENRE Concerto
REM DATE 2000
REM DISCID 89109A0A
REM COMMENT "ExactAudioCopy v1.0b6"
PERFORMER "Various Artists"
TITLE "Classics Collection: Franz Joseph Haydn"
FILE "Franz Joseph Haydn.flac" WAVE
TRACK 01 AUDIO
TITLE "Symphony No. 104 in D major ('London'), H. 1/104: Adagio, Allegro"
PERFORMER "Vladimir Simeonov"
INDEX 00 00:00:00
INDEX 01 00:00:33
TRACK 02 AUDIO
TITLE "Symphony No. 104 in D major ('London'), H. 1/104: Andante"
PERFORMER "Vladimir Simeonov"
INDEX 00 08:24:55
INDEX 01 08:27:50
TRACK 03 AUDIO
TITLE "Symphony No. 104 in D major ('London'), H. 1/104: Menuetto. Allegro & Trio"
PERFORMER "Vladimir Simeonov"
INDEX 00 17:55:60
INDEX 01 17:59:25
TRACK 04 AUDIO
TITLE "Symphony No. 104 in D major ('London'), H. 1/104: Finale. spirituoso"
PERFORMER "Vladimir Simeonov"
INDEX 00 23:05:43
INDEX 01 23:09:18
TRACK 05 AUDIO
TITLE "Trumpet Concerto in E flat major, H. 7e/1: Allegro"
PERFORMER "Sofia Philharmonic Orchestra, Yordan Dafov & Yordan Kozhouharov"
INDEX 00 29:43:60
INDEX 01 29:49:15
TRACK 06 AUDIO
TITLE "Trumpet Concerto in E flat major, H. 7e/1: Andante"
PERFORMER "Sofia Philharmonic Orchestra, Yordan Dafov & Yordan Kozhouharov"
INDEX 00 35:57:55
INDEX 01 36:00:58
TRACK 07 AUDIO
TITLE "Trumpet Concerto in E flat major, H. 7e/1: Finale. Allegro"
PERFORMER "Sofia Philharmonic Orchestra, Yordan Dafov & Yordan Kozhouharov"
INDEX 00 39:48:20
INDEX 01 39:50:50
TRACK 08 AUDIO
TITLE "Cello Concerto No. 1 in C major, H. 7b/1: Moderato"
PERFORMER "Harry Blech & Stefan Popov"
INDEX 00 44:31:13
INDEX 01 44:35:68
TRACK 09 AUDIO
TITLE "Cello Concerto No. 1 in C major, H. 7b/1: Adagio"
PERFORMER "Harry Blech & Stefan Popov"
INDEX 00 54:28:18
INDEX 01 54:31:03
TRACK 10 AUDIO
TITLE "Cello Concerto No. 1 in C major, H. 7b/1: Allegro Molto"
PERFORMER "Harry Blech & Stefan Popov"
INDEX 00 63:37:25
INDEX 01 63:40:35



Показать сообщения:    

Текущее время: 22-Янв 04:44

Часовой пояс: UTC + 3


Вы не можете начинать темы
Вы не можете отвечать на сообщения
Вы не можете редактировать свои сообщения
Вы не можете удалять свои сообщения
Вы не можете голосовать в опросах
Вы не можете прикреплять файлы к сообщениям
Вы не можете скачивать файлы