Джульярдская школа / A season at the Juilliard school (Присцилла Пизато /Priscilla Pizzato) (Серии 1-6 из 6) [2014, мини-сериал, TVRip] Rus Sub


Статистика раздачи [Обновить пиров]
Размер:  1.86 GB   |    Зарегистрирован:  8 месяцев 20 дней   |    Скачан:  0 раз

Полного источника не было: Никогда

 
   
 
 
 

[Цитировать]

Джульярдская школа / A season at the Juilliard school
Год выпуска: 2014
Страна: Франция (ARTE FRANCE)
Жанр: мини-сериал
Продолжительность: ~00:27:00 (серия)
Перевод: Субтитры
Русские субтитры: есть
Формат субтитров: hardsub (неотключаемые)
Оригинальная аудиодорожка: французский
Режиссер: Присцилла Пизато /Priscilla Pizzato
Телеканал: Аруц 8 (Израиль)
Описание: Джульярдская школа (Juilliard School) - одно из крупнейших американских высших учебных заведений в области искусства и музыки. Расположена в нью-йоркском Линкольн-центре. Этой школе, расположенной в самом центре Нью-Йорка, больше ста лет. Сегодня она считается одной из самых лучших в мире и официально признана лучшей в Америке. Здесь можно получить степень бакалавра музыки в области вокала, джаза, фортепиано, органа, духовых, струнных и других инструментов. Кроме этого, есть отделение танца, драматургический и гуманитарный факультеты. Поступить ежегодно удается всего примерно 8% из всех желающих. Зато прошедшие счастливчики получают лучшие залы для выступлений, множество концертов, прекрасных педагогов, доступ в творческие студии и перспективы трудоустройства. Выпускники получают отличные языковые и речевые навыки, они умеют работать со сценариями, обладают смекалкой и толстой кожей. Именитые выпускники: Джессика Честейн, Лора Линни, Виола Дэвис, Патти Люпоун, Келси Грэммер, Робин Уильямс и другие. В сериале рассказывается о методах подготовки в Джульярдской школе.
Доп. информация: Запись с канала "Аруц 8". Фильмы на французском языке с двойными субтитрами (вшитыми) на русском языке и иврите. Перевод: Ольга Еленицкая, Ольга Абрамова, Оксана Зацепина. Субтитры: Дори Медиа от ЛТД.
Сэмпл: https://yadi.sk/i/6PHnGl4epvkEU
качество: TVRip
формат: AVI
Видео: 1640 Кbps, 704х400 (16:9), 25.000 fps, MPEG-4 Visual (XviD)(Advanced Simple@L5)(BVOP2)
Аудио: 128 Kbps,48.0 KHz, 2 сhannels, MPEG Audio (MP3) (Version 1)(Layer 3)(Joint stereo/MS Stere

Список серий

1. Новый учебный год (THE NEW SCHOOL YEAR)
2. На сцене (ON STAGE)
3. Ансамбль (ON STAGE)
4. Артисты (ARTISTS)
5. Другие горизонты (OTHER HORIZONS)
6. Мечты и реальность (DREAMS AND REALITY)

MediaInfo

General
Complete name : D:\Juilliard School\01.avi
Format : AVI
Format/Info : Audio Video Interleave
File size : 333 MiB
Duration : 26mn 9s
Overall bit rate : 1 778 Kbps
Writing library : VirtualDub-MPEG2 build 24600/release
Video
ID : 0
Format : MPEG-4 Visual
Format profile : Advanced Simple@L5
Format settings, BVOP : 2
Format settings, QPel : No
Format settings, GMC : No warppoints
Format settings, Matrix : Default (MPEG)
Codec ID : XVID
Codec ID/Hint : XviD
Duration : 26mn 9s
Bit rate : 1 640 Kbps
Width : 704 pixels
Height : 400 pixels
Display aspect ratio : 16:9
Frame rate : 25.000 fps
Color space : YUV
Chroma subsampling : 4:2:0
Bit depth : 8 bits
Scan type : Progressive
Compression mode : Lossy
Bits/(Pixel*Frame) : 0.233
Stream size : 307 MiB (92%)
Writing library : XviD 58
Audio
ID : 1
Format : MPEG Audio
Format version : Version 1
Format profile : Layer 3
Mode : Joint stereo
Mode extension : MS Stereo
Codec ID : 55
Codec ID/Hint : MP3
Duration : 26mn 9s
Bit rate mode : Constant
Bit rate : 128 Kbps
Channel(s) : 2 channels
Sampling rate : 48.0 KHz
Compression mode : Lossy
Stream size : 24.0 MiB (7%)
Alignment : Split accross interleaves
Interleave, duration : 40 ms (1.00 video frame)
Interleave, preload duration : 500 ms

Скриншоты

[teatrix.ru].t23199.torrent 
Торрент: Зарегистрирован [ 2016-03-21 00:31 ] · 12D102F33557462258CDDDFDDA186AFC19068BED

Скачать .torrent

Скачать

3 KB

Статус: проверено
Скачан: 0 раз
Размер: 1.86 GB
terms.php



Быстрый ответ

Имя:

      
Для отправки сообщений необходимо включить JavaScript
Показать сообщения:    

Текущее время: 10-Дек 19:40

Часовой пояс: UTC + 3


Вы можете начинать темы
Вы можете отвечать на сообщения
Вы не можете редактировать свои сообщения
Вы не можете удалять свои сообщения
Вы не можете голосовать в опросах
Вы не можете прикреплять файлы к сообщениям
Вы можете скачивать файлы