(Classical) Ne me refuse pas: French Opera Arias - Massenet, Cherubini, Halevy, Berlioz, Wormser, Thomas, Bizet, Saint-Saens - Marie-Nicole Lemieux; Orchestre National de France, Fabien Gabel - 2010, FLAC (image+.cue) lossless


 

[Цитировать]

Ne me refuse pas: French Opera Arias - Marie-Nicole Lemieux; Orchestre National de France, Fabien Gabel
Жанр: Classical
Страна-производитель диска: France
Год издания диска: 2010
Издатель (лейбл): Naive
Номер по каталогу: V5201
Дата записи: 2010
Аудиокодек: FLAC
Тип рипа: image+.cue
Битрейт аудио: lossless
Продолжительность: 77:35
Источник: собственный рип
Наличие сканов в содержимом раздачи: да
Треклист:
[1] Jules Massenet: Ne me refuse pas (Hérodiade, Hérodiade)
[2] Luigi Cherubini: Ah! nos peines seront communes (Neris, Médée)
[3] Fromental Halévy: Sous leur sceptre (Odette, Charles VI)
[4] Hector Berlioz: Premiers transports (Roméo et Juliette)
[5] André Wormser: Qu'Apollon soit loué (Clytemnestre, Clytemnestre)
[6] Ambroise Thomas: Connais-tu le pays ? (Mignon, Mignon)
[7] Jules Massenet: Werther, Werther! Qui m'aurait dit la place (Charlotte, Werther)
[8] Georges Bizet: L'amour est un oiseau rebelle (Carmen, Carmen)
[9] Hector Berlioz: Je vais mourir (Didon, Les Troyens)
[10] Camille Saint-Saëns: Mon coeur s'ouvre à ta voix (Dalila, Samson et Dalila)
Исполнители:
Marie-Nicole Lemieux contralto
Orchestre National de France
Fabien Gabel

Лог создания рипа

Exact Audio Copy V1.0 beta 3 from 29. August 2011
EAC extraction logfile from 12. June 2015, 22:42
Marie-Nicole Lemieux, Orchestre National de France, Fabien Gabel / Ne me refuse pas
Used drive : HL-DT-STDVDRAM GU70N Adapter: 0 ID: 0
Read mode : Secure
Utilize accurate stream : Yes
Defeat audio cache : Yes
Make use of C2 pointers : No
Read offset correction : 48
Overread into Lead-In and Lead-Out : No
Fill up missing offset samples with silence : Yes
Delete leading and trailing silent blocks : No
Null samples used in CRC calculations : Yes
Used interface : Native Win32 interface for Win NT & 2000
Used output format : User Defined Encoder
Selected bitrate : 128 kBit/s
Quality : High
Add ID3 tag : No
Command line compressor : C:\Program Files (x86)\Exact Audio Copy\Flac\flac.exe
Additional command line options : -V -8 -T "Date=%year%" -T "Genre=%genre%" %source%
TOC of the extracted CD
Track | Start | Length | Start sector | End sector
---------------------------------------------------------
1 | 0:00.00 | 6:05.56 | 0 | 27430
2 | 6:05.56 | 8:52.07 | 27431 | 67337
3 | 14:57.63 | 12:09.66 | 67338 | 122078
4 | 27:07.54 | 6:49.60 | 122079 | 152813
5 | 33:57.39 | 6:07.55 | 152814 | 180393
6 | 40:05.19 | 5:43.64 | 180394 | 206182
7 | 45:49.08 | 11:10.21 | 206183 | 256453
8 | 56:59.29 | 4:37.05 | 256454 | 277233
9 | 61:36.34 | 6:19.64 | 277234 | 305722
10 | 67:56.23 | 9:38.31 | 305723 | 349103
Range status and errors
Selected range
Filename C:\temp\V5201 Ne me refuse pas - French Opera Arias (Lemieux, Orchestre National de France, Gabel)\Ne me refuse pas.wav
Peak level 98.3 %
Extraction speed 2.3 X
Range quality 100.0 %
Test CRC 39DDF9CA
Copy CRC 39DDF9CA
Copy OK
No errors occurred
AccurateRip summary
Track 1 accurately ripped (confidence 10) [98CEA3DC] (AR v2)
Track 2 accurately ripped (confidence 10) [657E8BBB] (AR v2)
Track 3 accurately ripped (confidence 10) [09C04573] (AR v2)
Track 4 accurately ripped (confidence 10) [A4931E78] (AR v2)
Track 5 accurately ripped (confidence 10) [A4E787D9] (AR v2)
Track 6 accurately ripped (confidence 10) [ABE71A1E] (AR v2)
Track 7 accurately ripped (confidence 10) [8828D8DC] (AR v2)
Track 8 accurately ripped (confidence 10) [0603EBCC] (AR v2)
Track 9 accurately ripped (confidence 10) [A9DB4F00] (AR v2)
Track 10 accurately ripped (confidence 9) [F35C7965] (AR v2)
All tracks accurately ripped
End of status report
==== Log checksum BB681D2B03FC2BC15224056C30F605CB62369F1B235AC48D0987D921753AF255 ====



Показать сообщения:    

Текущее время: 11-Дек 11:02

Часовой пояс: UTC + 3


Вы не можете начинать темы
Вы не можете отвечать на сообщения
Вы не можете редактировать свои сообщения
Вы не можете удалять свои сообщения
Вы не можете голосовать в опросах
Вы не можете прикреплять файлы к сообщениям
Вы не можете скачивать файлы