(Piano duo) Онеггер - Литургическая симфония (ар. Д.Шостаковича), Мессиан - Образы слова Аминь / Honegger - Symphony №3, ''Liturgique'' (arr. D.Shostakovich); Messiaen - Visions de l'Amen (Soos-Haag Piano Duo) - 2009, FLAC (tracks+.cue) lossless WEB


 

[Цитировать]

Honegger (arr. Shostakovich) - Symphony No.3, ''Liturgique'' - Messiaen - Visions de l'Amen
Жанр: Piano duo
Страна-производитель диска: Switzerland
Год издания диска: 2009
Издатель (лейбл): Guild
Номер по каталогу: GMCD7331
Дата записи: 2009
Аудиокодек: FLAC
Тип рипа: tracks+.cue
Битрейт аудио: lossless
Продолжительность: 75:35
Источник: prestoclassical
Наличие сканов в содержимом раздачи: да
Треклист:
Arthur Honegger (1892-1955)
Symphony No. 3, H186 'Liturgique' (1945-46) 27:53
Version for two pianos by Dmitri Shostakovich, 1947, pub. 2005
I. Dies irae. Allegro marcato (6:58)
II. De profundis clamavi. Adagio (11:32)
III. Dona nobis pacem. Andante (9:23)
Olivier Messiaen (1908-1992)
Visions de l'Amen, pour deux pianos (1943) 47:42
I. Amen de la Création (6:16)
II. Amen des étoiles de la planète à lanneau (5:41)
III. Amen de l'Agonie de Jésus (7:07)
IV. Amen du Désir (10:35)
V. Amen des Anges des Saintes (7:31)
VI. Amen du Jugement (2:47)
VII. Amen de la Consommation (7:45)
Исполнители:
Soós Haag Piano Duo:
Adrienne Soós (piano), Ivo Haag (piano)
rec. 14-16 February 2009, Radiostudio Zürich

Содержание индексной карты (.CUE)

TITLE "Honegger (arr. Shostakovich) - Symphony No.3, ''Liturgique'' - Messiaen - Visions de l'Amen - Soos Haag Piano Duo"
PERFORMER "Adrienne Soуs (piano), Ivo Haag (piano)"
FILE "L:\Honegger (arr. Shostakovich) - Symphony No.3 - Messiaen - Visions de l'Amen - Guild\01 - Honegger (arr. Shostakovich) - Symphony No.3, ''Liturgique'' - I. Dies irae. Allegro marcato.flac" FLAC
REM FILE-DECODED-SIZE 06:58:05
TRACK 01 AUDIO
INDEX 01 00:00:00
FILE "L:\Honegger (arr. Shostakovich) - Symphony No.3 - Messiaen - Visions de l'Amen - Guild\02 - Honegger (arr. Shostakovich) - Symphony No.3, ''Liturgique'' - II. De profundis plamavi. Adagio.flac" FLAC
REM FILE-DECODED-SIZE 11:32:74
TRACK 02 AUDIO
INDEX 01 00:00:00
FILE "L:\Honegger (arr. Shostakovich) - Symphony No.3 - Messiaen - Visions de l'Amen - Guild\03 - Honegger (arr. Shostakovich) - Symphony No.3, ''Liturgique'' - III. Dona nobis pacem. Andante.flac" FLAC
REM FILE-DECODED-SIZE 09:15:43
TRACK 03 AUDIO
INDEX 01 00:00:00
FILE "L:\Honegger (arr. Shostakovich) - Symphony No.3 - Messiaen - Visions de l'Amen - Guild\04 - Messiaen - Visions de l'Amen- I. Amen de la Crйation.flac" FLAC
REM FILE-DECODED-SIZE 06:16:21
TRACK 04 AUDIO
INDEX 01 00:00:00
FILE "L:\Honegger (arr. Shostakovich) - Symphony No.3 - Messiaen - Visions de l'Amen - Guild\05 - Messiaen - Visions de l'Amen- II. Amen des йtoiles de la planиte а lanneau.flac" FLAC
REM FILE-DECODED-SIZE 05:40:56
TRACK 05 AUDIO
INDEX 01 00:00:00
FILE "L:\Honegger (arr. Shostakovich) - Symphony No.3 - Messiaen - Visions de l'Amen - Guild\06 - Messiaen - Visions de l'Amen- III. Amen de lAgonie de Jйsus.flac" FLAC
REM FILE-DECODED-SIZE 07:07:12
TRACK 06 AUDIO
INDEX 01 00:00:00
FILE "L:\Honegger (arr. Shostakovich) - Symphony No.3 - Messiaen - Visions de l'Amen - Guild\07 - Messiaen - Visions de l'Amen- IV. Amen du Dйsir.flac" FLAC
REM FILE-DECODED-SIZE 10:35:23
TRACK 07 AUDIO
INDEX 01 00:00:00
FILE "L:\Honegger (arr. Shostakovich) - Symphony No.3 - Messiaen - Visions de l'Amen - Guild\08 - Messiaen - Visions de l'Amen- V. Amen des Anges des Saintes.flac" FLAC
REM FILE-DECODED-SIZE 07:30:66
TRACK 08 AUDIO
INDEX 01 00:00:00
FILE "L:\Honegger (arr. Shostakovich) - Symphony No.3 - Messiaen - Visions de l'Amen - Guild\09 - Messiaen - Visions de l'Amen- VI. Amen du Jugement.flac" FLAC
REM FILE-DECODED-SIZE 02:47:57
TRACK 09 AUDIO
INDEX 01 00:00:00
FILE "L:\Honegger (arr. Shostakovich) - Symphony No.3 - Messiaen - Visions de l'Amen - Guild\10 - Messiaen - Visions de l'Amen- VII. Amen de la Consommation.flac" FLAC
REM FILE-DECODED-SIZE 07:41:72
TRACK 10 AUDIO
TITLE "10 - Messiaen - Visions de l'Amen- VII. Amen de la Consommation"
PERFORMER "Adrienne Soуs (piano), Ivo Haag (piano)"
INDEX 01 00:00:00

Лог проверки качества

AUDIOCHECKER v2.0 beta (build 457) - by Dester - opdester@freemail.hu
~~~~~~~~~~~~~~~~~~~~~~~~~~~~~~~~~~
Started at: воскресенье, 06. 03. 2016. - 1:30.49
10 files found
01 -===- G:\Music\Classical\Lossless\Honegger - Symphony 3 arr. Shostakovich\01 - Honegger (arr. Shostakovich) - Symphony No.3, ''Liturgique'' - I. Dies irae. Allegro marcato.flac
Extracted successfully
Conclusion: this track is CDDA with probability 76%
Tempfile successfully deleted.
02 -===- G:\Music\Classical\Lossless\Honegger - Symphony 3 arr. Shostakovich\02 - Honegger (arr. Shostakovich) - Symphony No.3, ''Liturgique'' - II. De profundis plamavi. Adagio.flac
Extracted successfully
Conclusion: this track is CDDA with probability 54%
Tempfile successfully deleted.
03 -===- G:\Music\Classical\Lossless\Honegger - Symphony 3 arr. Shostakovich\03 - Honegger (arr. Shostakovich) - Symphony No.3, ''Liturgique'' - III. Dona nobis pacem. Andante.flac
Extracted successfully
Conclusion: this track is CDDA with probability 62%
Tempfile successfully deleted.
04 -===- G:\Music\Classical\Lossless\Honegger - Symphony 3 arr. Shostakovich\04 - Messiaen - Visions de l'Amen- I. Amen de la Creation.flac
Extracted successfully
Conclusion: this track is CDDA with probability 100%
Tempfile successfully deleted.
05 -===- G:\Music\Classical\Lossless\Honegger - Symphony 3 arr. Shostakovich\05 - Messiaen - Visions de l'Amen- II. Amen des etoiles de la planete a lanneau.flac
Extracted successfully
Conclusion: this track is CDDA with probability 100%
Tempfile successfully deleted.
06 -===- G:\Music\Classical\Lossless\Honegger - Symphony 3 arr. Shostakovich\06 - Messiaen - Visions de l'Amen- III. Amen de lAgonie de Jesus.flac
Extracted successfully
Conclusion: this track is CDDA with probability 100%
Tempfile successfully deleted.
07 -===- G:\Music\Classical\Lossless\Honegger - Symphony 3 arr. Shostakovich\07 - Messiaen - Visions de l'Amen- IV. Amen du Desir.flac
Extracted successfully
Conclusion: this track is CDDA with probability 100%
Tempfile successfully deleted.
08 -===- G:\Music\Classical\Lossless\Honegger - Symphony 3 arr. Shostakovich\08 - Messiaen - Visions de l'Amen- V. Amen des Anges des Saintes.flac
Extracted successfully
Conclusion: this track is CDDA with probability 92%
Tempfile successfully deleted.
09 -===- G:\Music\Classical\Lossless\Honegger - Symphony 3 arr. Shostakovich\09 - Messiaen - Visions de l'Amen- VI. Amen du Jugement.flac
Extracted successfully
Conclusion: this track is CDDA with probability 92%
Tempfile successfully deleted.
10 -===- G:\Music\Classical\Lossless\Honegger - Symphony 3 arr. Shostakovich\10 - Messiaen - Visions de l'Amen- VII. Amen de la Consommation.flac
Extracted successfully
Conclusion: this track is CDDA with probability 100%
Tempfile successfully deleted.
Finished at: воскресенье, 06. 03. 2016. - 1:47.30 (operation time: 0:16.41)
Доп. информация: В 1947 году Шостакович был на фестивале «Пражская весна», где услышал Литургическую симфонию Артюра Онеггера в исполнении Шарля Мюнша. Она произвела на Шостаковича такое впечатление, что он попросил партитуру и за сутки сделал представленное здесь переложение. Каждая часть симфонии имеет название, соответствующее той или иной части мессы: Dies irae, De profundis clamavi, Dona nobis pacem. Но, чтобы на границе не увидели, что Шостакович везет в Советский Союз религиозное сочинение, он не указал ни автора, ни заглавие, ни названия частей, хотя неоднократно исполнял симфонию для своих студентов в Ленинграде.
«Образы слова Аминь» (1943) Оливье Мессиана воссоздают образ звучащей вселенной - с ее вечными закономерностями и красотой, затрагивая проблему космогонической гармонии. И если предыдущая работа композитора - Квартет - возвещает «конец времён», «Образы» посвящены «началу». Как и во всех крупных сочинениях французского мастера, могучие идеи-концепции, вызванные созерцанием реального универсума, тесно переплетаются с религиозным элементом. Мессиан разыгрывает культовое священнодействие - древнюю легенду из «Книги Бытия» Моисеева пятикнижья: «Истинно так да будет!», что превращает инструментальное сочинение в мессу, Страсти, магнификат. В этом грандиозном семичастном полиптихе, построенном по принципу антично-ренессансной «геральдической» симметрии, крайние части (I. «Аминь творения», II. «Аминь звезд, планеты с кольцом» и VII. «Аминь завершения») составляют рамку бесконечных вселенских просторов и олицетворяют неживую вечную природу; средние «видения» выхватывают отдельные моменты мироздания, связанные с миром живым, миром чувств и настроений, человеческими страстями (IV. «Аминь желания»), страдают людским горем (III. «Аминь агонии Иисуса», VI. «Аминь Страшного суда»), радуются птичьему пению (V. «Аминь ангелов, святых, пения птиц») - здесь звучат подлинные песни соловьев, певчих дроздов, зябликов, зарянок..



Показать сообщения:    

Текущее время: 10-Дек 06:09

Часовой пояс: UTC + 3


Вы не можете начинать темы
Вы не можете отвечать на сообщения
Вы не можете редактировать свои сообщения
Вы не можете удалять свои сообщения
Вы не можете голосовать в опросах
Вы не можете прикреплять файлы к сообщениям
Вы не можете скачивать файлы