Безродные звери / Beasts of No Nation (Кэри Фукунага / Cary Joji Fukunaga) [2015, США, драма, военный, WEB-DLRip] AVO (Сербин)


Статистика раздачи [Обновить пиров]
Размер:  1.46 GB   |    Зарегистрирован:  8 месяцев 17 дней   |    Скачан:  0 раз

Полного источника не было: Никогда

 
   
 
 
 

[Цитировать]

Безродные звери / Beasts of No Nation- Год выпуска: 2015
Выпущено: США / Come What May Productions
Жанр: драма, военный
Продолжительность: 02:16:32
Перевод: Авторский (одноголосый, закадровый) Юрий Сербин (Ненормативная лексика)
Cубтитры: нет-Режиссер:
Кэри Фукунага / Cary Joji Fukunaga-В ролях:
Абрам Атта, Идрис Эльба, Эммануэль Аффадзи, Рики Аделайтор, Эндрю Эдот, Вера Ниаркоа Антви, Ама К. Абебрезе, Кобина Амисса-Сэм, Френсис Уэдди, Фред Нии Амуджи-Описание:
Фильм расскажет о приключениях юноши по имени Агу, которого гражданская война на западе Африки принуждает вступить в команду наемников. Судьбе мало того, что парень пережил гибель отца и исчезновение сестры и матери, она погружает его в жизнь, полную насилия и жестокости.-IMDB | КиноПоиск | Сэмпл |-Качество: WEB-DLRip [WEB-DL | 1080p | HDCLUB]
Формат: AVI
Видео: 720x304 (2.37:1), 23.976 fps, XviD build 67 ~1327 kbps avg, 0.25 bit/pixel
Аудио: 48 kHz, AC3 Dolby Digital, 2/0 (L,R) ch, ~192 kbps avg
-

Скриншоты

MediaInfo

General
Complete name                            : D:\Bezrodnye_zveri_2015_WEB-DLRip_AVO_by_Dalemake.avi
Format                                   : AVI
Format/Info                              : Audio Video Interleave
File size                                : 1.46 GiB
Duration                                 : 2h 16mn
Overall bit rate                         : 1 529 Kbps
Writing application                      : VirtualDubMod 1.5.10.3 | www.virtualdub-fr.org || (build 2550/release)
Writing library                          : VirtualDubMod build 2550/release
[br]
Video
ID                                       : 0
Format                                   : MPEG-4 Visual
Format profile                           : Advanced Simple@L5
Format settings, BVOP                    : 1
Format settings, QPel                    : No
Format settings, GMC                     : No warppoints
Format settings, Matrix                  : Custom
Codec ID                                 : XVID
Codec ID/Hint                            : XviD
Duration                                 : 2h 16mn
Bit rate                                 : 1 328 Kbps
Width                                    : 720 pixels
Height                                   : 304 pixels
Display aspect ratio                     : 2.35:1
Frame rate                               : 23.976 (23976/1000) fps
Color space                              : YUV
Chroma subsampling                       : 4:2:0
Bit depth                                : 8 bits
Scan type                                : Progressive
Compression mode                         : Lossy
Bits/(Pixel*Frame)                       : 0.253
Stream size                              : 1.27 GiB (87%)
Writing library                          : XviD 67
[br]
Audio
ID                                       : 1
Format                                   : AC-3
Format/Info                              : Audio Coding 3
Mode extension                           : CM (complete main)
Format settings, Endianness              : Big
Codec ID                                 : 2000
Duration                                 : 2h 16mn
Bit rate mode                            : Constant
Bit rate                                 : 192 Kbps
Channel(s)                               : 2 channels
Channel positions                        : Front: L R
Sampling rate                            : 48.0 KHz
Frame rate                               : 31.250 fps (1536 spf)
Compression mode                         : Lossy
Stream size                              : 188 MiB (13%)
Alignment                                : Split accross interleaves
Interleave, duration                     : 42 ms (1.00 video frame)
Interleave, preload duration             : 500 ms
-Цитата:
Перевод Ю.Сербина выполнен в рамках сервиса "Озвучивание".. Спонсоры - HDCLUB: stallk, tambov68, Dema2222, Dervish, vbilas, viryzhkov, Mr_Grakeson, innominate, Тряска, malyaka, Fullsport, E180.RU: oleg-k, luka69, foxlight, chontvari, Некрасов, hdrmv12, Nadoelo, magvai, Volshebnik, ylnian1986, Ken, DMX-92, Palmer Eldritch, SHIP.
-
[teatrix.ru].t23202.torrent 
Торрент: Зарегистрирован [ 2016-03-21 00:31 ] · CEC74374F1381D6FD9C08268557BFE25C2F55A91

Скачать .torrent

Скачать

15 KB

Статус: проверено
Скачан: 0 раз
Размер: 1.46 GB
terms.php



Быстрый ответ

Имя:

      
Для отправки сообщений необходимо включить JavaScript
Показать сообщения:    

Текущее время: 07-Дек 15:33

Часовой пояс: UTC + 3


Вы можете начинать темы
Вы можете отвечать на сообщения
Вы не можете редактировать свои сообщения
Вы не можете удалять свои сообщения
Вы не можете голосовать в опросах
Вы не можете прикреплять файлы к сообщениям
Вы можете скачивать файлы