Последний удар молота / Le dernier coup de marteau (Аликс Делапорт / Alix Delaporte) [2014, Франция, драма, DVB] Original (Fre) + Sub (Rus, Eng, Fre, Deu)


Статистика раздачи [Обновить пиров]
Размер:  1.96 GB   |    Зарегистрирован:  8 месяцев 19 дней   |    Скачан:  0 раз

Полного источника не было: Никогда

 
   
 
 
 

[Цитировать]

Последний удар молота
Le dernier coup de marteau- Страна: Франция
Жанр: драма
Год выпуска: 2014
Продолжительность: 01:18:58Перевод: Субтитры (русский перевод И.Рыбкиной, Eclair Media)
Cубтитры: русские, английские, французские, немецкие, румынские
Оригинальная аудиодорожка: французский
Режиссер: Аликс Делапорт / Alix Delaporte
В ролях: Ромен Поль / Romain Paul (Victor), Клотильда Эсм / Clotilde Hesme (Nadia), Грегори Гадебуа / Grégory Gadebois (Samuel Rovinski), Кандела Пенья / Candela Peña (Maria), Тристан Ульоа / Tristán Ulloa (Fabio), Фарида Раухадж / Farida Rahouadj (L'assistante de Rovinski)
Описание: Когда 13-летний Виктор впервые посетил оперный театр в Монпелье, он ничего не понимал в классической музыке, и тем более не знал, что его отец - известный дирижер Самюэль Равински, работающий в этом театре. Мать Виктора Надя решает познакомить своего взрослеющего сына с миром музыки и с его отцом. Это становится переломной точкой в жизни Виктора.
Доп. информация: Hot Bird (13.0°E) TV5MONDE Europe DVB-S. Во время нефранцузской речи вшитые французские субтитры.
Награды: 2 награды Venice Film Festival 2014 (премия Марчелло Мастроянни лучшему молодому актёру - Romain Paul, премия "Волшебный фонарь") + номинация на "Золотой лев"; др. награды.

Качество видео: DVB
Формат видео: TS
Видео: MPEG Video 2, 720x576@1024x576 (16:9), 25 fps, ~3190 kbps avg, 0.308 bit/pixel
Аудио: MPEG Audio 2, 2 ch, 48 kHz, 192 kbps - французский
Формат субтитров: PGS

MediaInfo

General
ID : 1 (0x1)
Complete name : [apreder]Le_dernier_coup_de_marteau(2014)DVB.ts
Format : MPEG-TS
File size : 1.96 GiB
Duration : 1h 18mn
Overall bit rate mode : Variable
Overall bit rate : 3 560 Kbps
Maximum Overall bit rate : 35.5 Mbps
Video
ID : 4113 (0x1011)
Menu ID : 1 (0x1)
Format : MPEG Video
Format version : Version 2
Format profile : Main@Main
Format settings, BVOP : Yes
Format settings, Matrix : Custom
Format settings, GOP : Variable
Format settings, picture structure : Frame
Codec ID : 2
Duration : 1h 18mn
Bit rate mode : Variable
Bit rate : 3 190 Kbps
Width : 720 pixels
Height : 576 pixels
Display aspect ratio : 16:9
Frame rate : 25.000 fps
Standard : PAL
Color space : YUV
Chroma subsampling : 4:2:0
Bit depth : 8 bits
Scan type : Interlaced
Scan order : Top Field First
Compression mode : Lossy
Bits/(Pixel*Frame) : 0.308
Time code of first frame : 00:00:00:00
Time code source : Group of pictures header
GOP, Open/Closed : Open
GOP, Open/Closed of first frame : Closed
Stream size : 1.76 GiB (90%)
Audio
ID : 4352 (0x1100)
Menu ID : 1 (0x1)
Format : MPEG Audio
Format version : Version 1
Format profile : Layer 2
Codec ID : 4
Duration : 1h 18mn
Bit rate mode : Constant
Bit rate : 192 Kbps
Channel(s) : 2 channels
Sampling rate : 48.0 KHz
Compression mode : Lossy
Stream size : 108 MiB (5%)
Language : French
Text #1
ID : 4608 (0x1200)
Menu ID : 1 (0x1)
Format : PGS
Codec ID : 144
Language : Russian
Text #2
ID : 4609 (0x1201)
Menu ID : 1 (0x1)
Format : PGS
Codec ID : 144
Language : English
Text #3
ID : 4610 (0x1202)
Menu ID : 1 (0x1)
Format : PGS
Codec ID : 144
Language : French
Text #4
ID : 4611 (0x1203)
Menu ID : 1 (0x1)
Format : PGS
Codec ID : 144
Language : German
Text #5
ID : 4612 (0x1204)
Menu ID : 1 (0x1)
Format : PGS
Codec ID : 144
Language : Romanian

Скриншот c названием фильма

Скриншоты


Резервные скриншоты


-
[teatrix.ru].t23203.torrent 
Торрент: Зарегистрирован [ 2016-03-21 00:31 ] · 404146FB31D47620AC232CFA5C41545765546C52

Скачать .torrent

Скачать

1 MB

Статус: проверено
Скачан: 0 раз
Размер: 1.96 GB
terms.php



Быстрый ответ

Имя:

      
Для отправки сообщений необходимо включить JavaScript
Показать сообщения:    

Текущее время: 09-Дек 01:01

Часовой пояс: UTC + 3


Вы можете начинать темы
Вы можете отвечать на сообщения
Вы не можете редактировать свои сообщения
Вы не можете удалять свои сообщения
Вы не можете голосовать в опросах
Вы не можете прикреплять файлы к сообщениям
Вы можете скачивать файлы