(French concerto) Дариюс Мийо / Darius Milhaud - Concertos for Cello and Orchestra 1 & 2, Suite Cisalpine; Saint-Saens - Cello concerto № 1 (Марк Дробинский, Екатеринбургский симфонический оркестр, Дм.Лисс) - 2001, APE (image+.cue) lossless


Статистика раздачи [Обновить пиров]
Размер:  334 MB   |    Зарегистрирован:  8 месяцев 13 дней   |    Скачан:  2 раза

Полного источника не было: 1 месяц 21 день

 
   
 
 
 

[Цитировать]

Milhaud - Concertos for Cello and Orchestra 1 & 2, Suite Cisalpine
Жанр: French concerto
Страна-производитель диска: Switzerland
Год издания диска: 2001
Издатель (лейбл): Doron music
Номер по каталогу: DRC3035
Дата записи: 2000
Аудиокодек: APE
Тип рипа: image+.cue
Битрейт аудио: lossless
Продолжительность: 65:22
Источник: скачано с
Наличие сканов в содержимом раздачи: да
Треклист:
Darius Milhaud (1892-1974)
Concerto № 1 for cello & orchestra, op. 136 (1934)
01 I. Nonchalant (4:20)
02 II. Grave (6:02)
03 III. Joyeux (3:00)
Concerto № 2 for cello & orchestra, op. 255 (1945)
04 I. Gai (4:55)
05 II. Tendre (7:35)
06 III. Alerte (6:11)
Suite Cisalpine des airs populaires piemontais for cello & orchestra, op. 332 (1954)
07 I. Vif (4:02)
08 II. Modere (4:24)
09 III. Tres anime (4:09)
Camille Saint-Saens (1835-1921)
Concerto № 1 A minor for cello & orchestra (1872) (20:41)
10 I. Allegro non troppo II. Allegro con moto III. Molto allegro
Исполнители:
Марк Дробинский, виолончель
Екатеринбургский симфонический оркестр (Уральский филармонический)
Дирижёр - Дмитрий Лисс
18-20 апреля 2000г., концертный зал филармонии Екатеринбурга
Swedish Radio Symphony Orchestra/Stig Westerberg, april 1988 (10)

Лог создания рипа

Exact Audio Copy V0.99 prebeta 5 from 4. May 2009
EAC extraction logfile from 9. June 2011, 18:31
Milhaud, Darius / Works for Cello and Orchestra
Used drive : HL-DT-STDVDRAM GSA-T20N Adapter: 1 ID: 0
Read mode : Secure
Utilize accurate stream : Yes
Defeat audio cache : Yes
Make use of C2 pointers : No
Read offset correction : 667
Overread into Lead-In and Lead-Out : No
Fill up missing offset samples with silence : Yes
Delete leading and trailing silent blocks : No
Null samples used in CRC calculations : Yes
Used interface : Native Win32 interface for Win NT & 2000
Used output format : Monkey's Audio Lossless Encoder
Selected bitrate : Normal Lossless Compression
Quality : High
Add ID3 tag : No
Command line compressor : C:\Program Files\Monkey's Audio\Monkey's Audio.exe
TOC of the extracted CD
Track | Start | Length | Start sector | End sector
---------------------------------------------------------
1 | 0:00.32 | 4:20.60 | 32 | 19591
2 | 4:21.17 | 6:02.28 | 19592 | 46769
3 | 10:23.45 | 3:00.15 | 46770 | 60284
4 | 13:23.60 | 4:55.50 | 60285 | 82459
5 | 18:19.35 | 7:35.00 | 82460 | 116584
6 | 25:54.35 | 6:11.70 | 116585 | 144479
7 | 32:06.30 | 4:02.60 | 144480 | 162689
8 | 36:09.15 | 4:24.12 | 162690 | 182501
9 | 40:33.27 | 4:09.33 | 182502 | 201209
10 | 44:42.60 | 20:41.32 | 201210 | 294316
Range status and errors
Selected range
Filename C:\Users\mmenut\Desktop\Uploads\Milhaud, Darius - Works for Cello and Orchestra.wav
Peak level 100.0 %
Range quality 100.0 %
Copy CRC 095594BA
Copy OK
No errors occurred
AccurateRip summary
Track 1 not present in database
Track 2 not present in database
Track 3 not present in database
Track 4 not present in database
Track 5 not present in database
Track 6 not present in database
Track 7 not present in database
Track 8 not present in database
Track 9 not present in database
Track 10 not present in database
None of the tracks are present in the AccurateRip database
End of status report
Доп. информация: Дариюс Мийо много писал в жанре инструментального концерта. Среди его сочинений для виолончели с оркестром особенно популярен 1й концерт (1934), а 2й (1945) можно услышать крайне редко. Цизальпинская cюита для виолончели с оркестром (1954) написана на народные мелодии итальянской провинции Пьемонт, во времена Наполеона входившей в состав Франции.
Марк Дробинский - продолжатель великих отечественных традиций, виолончелист с мировым именем. У него и инструмент отменный — Дробинский играет на виолончели (1748) работы итальянского мастера Карло Антонио Тесторе.
[teatrix.ru].t23204.torrent 
Торрент: Зарегистрирован [ 2016-03-21 00:31 ] · 491C08BB354BFD7C7CF1308AA805D430D4271C97

Скачать .torrent

Скачать

14 KB

Статус: проверено
Скачан: 2 раз
Размер: 334 MB
terms.php



Быстрый ответ

Имя:

      
Для отправки сообщений необходимо включить JavaScript
Показать сообщения:    

Текущее время: 03-Дек 03:21

Часовой пояс: UTC + 3


Вы можете начинать темы
Вы можете отвечать на сообщения
Вы не можете редактировать свои сообщения
Вы не можете удалять свои сообщения
Вы не можете голосовать в опросах
Вы не можете прикреплять файлы к сообщениям
Вы можете скачивать файлы