(Orchestral) Рейнгольд Глиэр - Балетные сюиты №1 »Комедианты« • №2 »Хризис« (Рейнгольд Глиэр - дирижёр) - 1995, FLAC (image+.cue) lossless


 

[Цитировать]

GLIERE conducts GLIERE
Ballet suite No.1 | Ballet suite No.2
--- Жанр: Orchestral
Страна-производитель диска: USA
Год издания диска: 1995
Издатель (лейбл): Consonance
Дата записи: 1947
Аудиокодек: FLAC
Тип рипа: image+.cue
Битрейт аудио: lossless
Продолжительность: 75'31''
Источник: собственный рип
Наличие сканов в содержимом раздачи: да
Треклист:
Балетная сюита №1 »Комедианты«:
[01] I. Dance of the Bride
[02] II. Dance of the Girlfriends
[03] III. Dsnce of the Friends
[04] IV. Dance of the Juggler-Girl
[05] V. Dance of the Moorish Girls
[06] VI. Capriccio
[07] VII. Lyric scene No.2
[08] VIII. Gypsy dance
[09] IX. Lyric scene No.1
Балетная сюита №2 »Хризис«:
[10] I. Introduction
[11] II. Dreams
[12] III. Games
[13] IV. At the Brook
[14] V. Round dance
[15] VI. Merry dance
[16] VII. Intermezzo
[17] VIII. Dance of the Seven Flowers
[18] IX. Slow dance
[19] X. Danse of Ecstasy
Исполнители:
Оркестр Большого Театра [10-19]
Симфонический Оркестр Всесоюзного Радио
Рейнгольд Глиэр
-

Лог создания рипа

Exact Audio Copy V1.1 from 23. June 2015
EAC extraction logfile from 6. February 2016, 20:49
Reinhold Glière / Gliere conducts Gliere: Ballet suites
Used drive : PHILIPS PCRW804 Adapter: 1 ID: 1
Read mode : Secure
Utilize accurate stream : Yes
Defeat audio cache : Yes
Make use of C2 pointers : No
Read offset correction : -436
Overread into Lead-In and Lead-Out : No
Fill up missing offset samples with silence : Yes
Delete leading and trailing silent blocks : No
Null samples used in CRC calculations : Yes
Used interface : Native Win32 interface for Win NT & 2000
Used output format : User Defined Encoder
Selected bitrate : 896 kBit/s
Quality : High
Add ID3 tag : No
Command line compressor : C:\Program Files\flac-1.3.1pre1-win\win64\flac.exe
Additional command line options : -T "COMMENT=rip by el coronel" -8 -V %source%
TOC of the extracted CD
Track | Start | Length | Start sector | End sector
---------------------------------------------------------
1 | 0:00.00 | 3:28.07 | 0 | 15606
2 | 3:28.07 | 3:30.68 | 15607 | 31424
3 | 6:59.00 | 2:23.70 | 31425 | 42219
4 | 9:22.70 | 3:57.65 | 42220 | 60059
5 | 13:20.60 | 2:14.25 | 60060 | 70134
6 | 15:35.10 | 1:44.00 | 70135 | 77934
7 | 17:19.10 | 5:49.15 | 77935 | 104124
8 | 23:08.25 | 2:15.05 | 104125 | 114254
9 | 25:23.30 | 5:39.45 | 114255 | 139724
10 | 31:03.00 | 6:03.05 | 139725 | 166954
11 | 37:06.05 | 5:12.20 | 166955 | 190374
12 | 42:18.25 | 2:22.47 | 190375 | 201071
13 | 44:40.72 | 4:32.20 | 201072 | 221491
14 | 49:13.17 | 3:23.63 | 221492 | 236779
15 | 52:37.05 | 2:55.30 | 236780 | 249934
16 | 55:32.35 | 2:50.57 | 249935 | 262741
17 | 58:23.17 | 7:05.58 | 262742 | 294674
18 | 65:29.00 | 3:19.55 | 294675 | 309654
19 | 68:48.55 | 6:42.20 | 309655 | 339824
Range status and errors
Selected range
Filename F:\Music\Gliere conducts Gliere - Ballet suites\CD.wav
Peak level 79.7 %
Extraction speed 2.2 X
Range quality 100.0 %
Test CRC 48DBE7B3
Copy CRC 48DBE7B3
Copy OK
No errors occurred
AccurateRip summary
Track 1 not present in database
Track 2 not present in database
Track 3 not present in database
Track 4 not present in database
Track 5 not present in database
Track 6 not present in database
Track 7 not present in database
Track 8 not present in database
Track 9 not present in database
Track 10 not present in database
Track 11 not present in database
Track 12 not present in database
Track 13 not present in database
Track 14 not present in database
Track 15 not present in database
Track 16 not present in database
Track 17 not present in database
Track 18 not present in database
Track 19 not present in database
None of the tracks are present in the AccurateRip database
End of status report
---- CUETools DB Plugin V2.1.6
[CTDB TOCID: 6_gpX84Lz1dNn8uttvQRUTGayYY-] disk not present in database
Submit result: 6_gpX84Lz1dNn8uttvQRUTGayYY- has been uploaded
==== Log checksum 18B9DD81515F93A3863F38F22DA325D3E8EC03C303DD8D74321BF1A18627BF8D ====

Содержание индексной карты (.CUE)

REM GENRE Classical
REM DATE 1995
REM DISCID F011B313
REM COMMENT "ExactAudioCopy v1.1"
PERFORMER "Reinhold Gliere"
TITLE "Gliere conducts Gliere: Ballet suites"
FILE "CD.flac" WAVE
TRACK 01 AUDIO
TITLE "Ballet Suite No.1 'Sheep's Spring': I. Dance of the Bride"
PERFORMER "All-Union Radio Orchestra - Reinhold Gliere"
INDEX 01 00:00:00
TRACK 02 AUDIO
TITLE "II. Dance of the Girlfriends"
PERFORMER "All-Union Radio Orchestra - Reinhold Gliere"
INDEX 00 03:26:25
INDEX 01 03:28:07
TRACK 03 AUDIO
TITLE "III. Dsnce of the Friends"
PERFORMER "All-Union Radio Orchestra - Reinhold Gliere"
INDEX 00 06:56:50
INDEX 01 06:59:00
TRACK 04 AUDIO
TITLE "IV. Dance of the Juggler-Girl"
PERFORMER "All-Union Radio Orchestra - Reinhold Gliere"
INDEX 00 09:21:12
INDEX 01 09:22:70
TRACK 05 AUDIO
TITLE "V. Dance of the Moorish Girls"
PERFORMER "All-Union Radio Orchestra - Reinhold Gliere"
INDEX 00 13:19:00
INDEX 01 13:20:60
TRACK 06 AUDIO
TITLE "VI. Capriccio"
PERFORMER "All-Union Radio Orchestra - Reinhold Gliere"
INDEX 00 15:33:09
INDEX 01 15:35:10
TRACK 07 AUDIO
TITLE "VII. Lyric scene No.2"
PERFORMER "All-Union Radio Orchestra - Reinhold Gliere"
INDEX 00 17:17:01
INDEX 01 17:19:10
TRACK 08 AUDIO
TITLE "VIII. Gypsy dance"
PERFORMER "All-Union Radio Orchestra - Reinhold Gliere"
INDEX 00 23:06:07
INDEX 01 23:08:25
TRACK 09 AUDIO
TITLE "IX. Lyric scene No.1"
PERFORMER "All-Union Radio Orchestra - Reinhold Gliere"
INDEX 00 25:21:05
INDEX 01 25:23:30
TRACK 10 AUDIO
TITLE "Ballet Suite No.2 'Khrizis': I. Introduction"
PERFORMER "Bolshoi Theatre Orchestra - Reinhold Gliere"
INDEX 00 30:58:30
INDEX 01 31:03:00
TRACK 11 AUDIO
TITLE "II. Dreams"
PERFORMER "Bolshoi Theatre Orchestra - Reinhold Gliere"
INDEX 00 37:03:50
INDEX 01 37:06:05
TRACK 12 AUDIO
TITLE "III. Games"
PERFORMER "Bolshoi Theatre Orchestra - Reinhold Gliere"
INDEX 00 42:16:13
INDEX 01 42:18:25
TRACK 13 AUDIO
TITLE "IV. At the Brook"
PERFORMER "Bolshoi Theatre Orchestra - Reinhold Gliere"
INDEX 00 44:39:03
INDEX 01 44:40:72
TRACK 14 AUDIO
TITLE "V. Round dance"
PERFORMER "Bolshoi Theatre Orchestra - Reinhold Gliere"
INDEX 00 49:11:37
INDEX 01 49:13:17
TRACK 15 AUDIO
TITLE "VI. Merry dance"
PERFORMER "Bolshoi Theatre Orchestra - Reinhold Gliere"
INDEX 00 52:35:02
INDEX 01 52:37:05
TRACK 16 AUDIO
TITLE "VII. Intermezzo"
PERFORMER "Bolshoi Theatre Orchestra - Reinhold Gliere"
INDEX 00 55:31:31
INDEX 01 55:32:35
TRACK 17 AUDIO
TITLE "VIII. Dance of the Seven Flowers"
PERFORMER "Bolshoi Theatre Orchestra - Reinhold Gliere"
INDEX 00 58:21:67
INDEX 01 58:23:17
TRACK 18 AUDIO
TITLE "IX. Slow dance"
PERFORMER "Bolshoi Theatre Orchestra - Reinhold Gliere"
INDEX 00 65:26:32
INDEX 01 65:29:00
TRACK 19 AUDIO
TITLE "X. Danse of Ecstasy"
PERFORMER "Bolshoi Theatre Orchestra - Reinhold Gliere"
INDEX 00 68:46:39
INDEX 01 68:48:55
-

Топик был перенесен из форума Оркестровая музыка (lossless) в форум Музыка к балетам (lossy и lossless)
admin


Показать сообщения:    

Текущее время: 03-Дек 07:41

Часовой пояс: UTC + 3


Вы не можете начинать темы
Вы не можете отвечать на сообщения
Вы не можете редактировать свои сообщения
Вы не можете удалять свои сообщения
Вы не можете голосовать в опросах
Вы не можете прикреплять файлы к сообщениям
Вы не можете скачивать файлы