(Orchestral) Рейнгольд Глиэр - Симфония №1 (Рейнгольд Глиэр - дирижёр) | Концерт для арфы с оркестром (О.Эрдели • Оркестр Всесоюзного Радио - Б.Хайкин) - 1995, FLAC (image+.cue) lossless


 

[Цитировать]

Gliere conducts Gliere
Symphony No.1
--- Жанр: Orchestral
Страна-производитель диска: USA
Год издания диска: 1995
Издатель (лейбл): Consonance
Дата записи: 1950/68
Аудиокодек: FLAC
Тип рипа: image+.cue
Битрейт аудио: lossless
Продолжительность: 67'33''
Источник: собственный рип
Наличие сканов в содержимом раздачи: да
Треклист:
Симфония №1:
[01] I. Andante. Allegro moderato
[02] II. Andante. Allegro molto vivace
[03] III. Andante
[04] IV. Finale. Allegro
Концерт для арфы с оркестром:
[05] I. Allegro moderato
[06] II. Tema con variazioni
[07] III. Allegro giocoso
Исполнители:
Ольга Эрдели - арфа
Симфонический Оркестр Всесоюзного Радио
Рейнгольд Глиэр
Борис Хайкин
[5-7]-

Лог создания рипа

Exact Audio Copy V1.1 from 23. June 2015
EAC extraction logfile from 22. February 2016, 15:48
All-Union Radio Symphony Orchestra - R.Gliere / Gliere conducts Gliere: Symphony No.1
Used drive : TEAC CD-W540E Adapter: 1 ID: 1
Read mode : Secure
Utilize accurate stream : Yes
Defeat audio cache : Yes
Make use of C2 pointers : No
Read offset correction : 686
Overread into Lead-In and Lead-Out : No
Fill up missing offset samples with silence : Yes
Delete leading and trailing silent blocks : No
Null samples used in CRC calculations : Yes
Used interface : Native Win32 interface for Win NT & 2000
Used output format : User Defined Encoder
Selected bitrate : 896 kBit/s
Quality : High
Add ID3 tag : No
Command line compressor : C:\Program Files\flac-1.3.1pre1-win\win64\flac.exe
Additional command line options : -T "COMMENT=rip by el coronel" -8 -V %source%
TOC of the extracted CD
Track | Start | Length | Start sector | End sector
---------------------------------------------------------
1 | 0:00.00 | 16:40.35 | 0 | 75034
2 | 16:40.35 | 6:33.60 | 75035 | 104569
3 | 23:14.20 | 8:51.27 | 104570 | 144421
4 | 32:05.47 | 8:01.60 | 144422 | 180556
5 | 40:07.32 | 10:58.08 | 180557 | 229914
6 | 51:05.40 | 11:03.10 | 229915 | 279649
7 | 62:08.50 | 5:24.50 | 279650 | 303999
Range status and errors
Selected range
Filename F:\Music\Gliere conducts Gliere - Symphony No.1\CD.wav
Peak level 85.2 %
Extraction speed 4.9 X
Range quality 100.0 %
Test CRC 4291EE9B
Copy CRC 4291EE9B
Copy OK
No errors occurred
AccurateRip summary
Track 1 accurately ripped (confidence 2) [E77D513E] (AR v2)
Track 2 accurately ripped (confidence 2) [0BB65EED] (AR v2)
Track 3 accurately ripped (confidence 2) [84BE9E0F] (AR v2)
Track 4 accurately ripped (confidence 2) [DCCB00B7] (AR v2)
Track 5 accurately ripped (confidence 2) [1DA8F9C1] (AR v2)
Track 6 accurately ripped (confidence 2) [178AB93C] (AR v2)
Track 7 accurately ripped (confidence 2) [9B62477B] (AR v2)
All tracks accurately ripped
End of status report
---- CUETools DB Plugin V2.1.6
[CTDB TOCID: InWfPdcvMy5sn1oeeZnDVEtCcrE-] found
Submit result: InWfPdcvMy5sn1oeeZnDVEtCcrE- has been confirmed
Track | CTDB Status
1 | (2/2) Accurately ripped
2 | (2/2) Accurately ripped
3 | (2/2) Accurately ripped
4 | (2/2) Accurately ripped
5 | (2/2) Accurately ripped
6 | (2/2) Accurately ripped
7 | (2/2) Accurately ripped
==== Log checksum 8137120F7F9ABDB905CE5FF7C10B0376F1D992F783C0E700401D6D6F2303E510 ====

Содержание индексной карты (.CUE)

REM GENRE Classical
REM DATE 1995
REM DISCID 570FD507
REM COMMENT "ExactAudioCopy v1.1"
PERFORMER "All-Union Radio Symphony Orchestra - R.Gliere"
TITLE "Gliere conducts Gliere: Symphony No.1"
FILE "CD.flac" WAVE
TRACK 01 AUDIO
TITLE "Symphony No.1: I. Andante. Allegro moderato"
PERFORMER "All-Union Radio Symphony Orchestra - R.Gliere"
INDEX 01 00:00:00
TRACK 02 AUDIO
TITLE "II. Andante. Allegro molto vivace"
PERFORMER "All-Union Radio Symphony Orchestra - R.Gliere"
INDEX 00 16:38:25
INDEX 01 16:40:35
TRACK 03 AUDIO
TITLE "III. Andante"
PERFORMER "All-Union Radio Symphony Orchestra - R.Gliere"
INDEX 00 23:11:50
INDEX 01 23:14:20
TRACK 04 AUDIO
TITLE "IV. Finale. Allegro"
PERFORMER "All-Union Radio Symphony Orchestra - R.Gliere"
INDEX 00 32:03:25
INDEX 01 32:05:47
TRACK 05 AUDIO
TITLE "Concerto for Harp and Orchestra: I. Allegro moderato"
PERFORMER "O.Erdeli; All-Union Radio Symphony Orchestra - B.Khaikin"
INDEX 00 40:03:45
INDEX 01 40:07:32
TRACK 06 AUDIO
TITLE "II. Tema con variazioni"
PERFORMER "O.Erdeli; All-Union Radio Symphony Orchestra - B.Khaikin"
INDEX 00 51:02:40
INDEX 01 51:05:40
TRACK 07 AUDIO
TITLE "III. Allegro giocoso"
PERFORMER "O.Erdeli; All-Union Radio Symphony Orchestra - B.Khaikin"
INDEX 00 62:05:00
INDEX 01 62:08:50
-



Показать сообщения:    

Текущее время: 08-Дек 09:06

Часовой пояс: UTC + 3


Вы не можете начинать темы
Вы не можете отвечать на сообщения
Вы не можете редактировать свои сообщения
Вы не можете удалять свои сообщения
Вы не можете голосовать в опросах
Вы не можете прикреплять файлы к сообщениям
Вы не можете скачивать файлы