(Orchestral) Рейнгольд Глиэр - Симфония №2 (Рейнгольд Глиэр - дирижёр) | Концерт для колоратурного сопрано (Е.Мирошниченко • Оркестр Большого Театра - М.Эрмлер) - 1995, FLAC (image+.cue) lossless


 

[Цитировать]

Gliere conducts Gliere
Symphony No.2
--- Жанр: Orchestral
Страна-производитель диска: USA
Год издания диска: 1995
Издатель (лейбл): Consonance
Дата записи: 1949/74
Аудиокодек: FLAC
Тип рипа: image+.cue
Битрейт аудио: lossless
Продолжительность: 61'07''
Источник: собственный рип
Наличие сканов в содержимом раздачи: да
Треклист:
Симфония №2:
[01] I. Allegro pesante
[02] II. Allegro giocoso
[03] III. Andante con variazioni
[04] IV. Allegro vivace
Концерт для колоратурного сопрано:
[05] I. Andante
[06] II. Allegro
Исполнители:
Евгения Мирошниченко - сопрано
Оркестр Большого Театра
Марк Эрмлер
[5-6]
Симфонический Оркестр Всесоюзного Радио
Рейнгольд Глиэр
-

Лог создания рипа

Exact Audio Copy V1.1 from 23. June 2015
EAC extraction logfile from 12. December 2015, 16:25
All-Union Radio Symphony Orchestra - R.Gliere / Gliere conducts Gliere: Symphony No.2
Used drive : TEAC CD-W540E Adapter: 1 ID: 1
Read mode : Secure
Utilize accurate stream : Yes
Defeat audio cache : Yes
Make use of C2 pointers : No
Read offset correction : 686
Overread into Lead-In and Lead-Out : No
Fill up missing offset samples with silence : Yes
Delete leading and trailing silent blocks : No
Null samples used in CRC calculations : Yes
Used interface : Native Win32 interface for Win NT & 2000
Used output format : User Defined Encoder
Selected bitrate : 1024 kBit/s
Quality : High
Add ID3 tag : No
Command line compressor : C:\flac-1.3.1pre1-win\win64\flac.exe
Additional command line options : -T "COMMENT=rip by el coronel" -8 -V %source%
TOC of the extracted CD
Track | Start | Length | Start sector | End sector
---------------------------------------------------------
1 | 0:00.00 | 14:36.22 | 0 | 65721
2 | 14:36.22 | 7:44.53 | 65722 | 100574
3 | 22:21.00 | 13:57.55 | 100575 | 163404
4 | 36:18.55 | 11:27.57 | 163405 | 214986
5 | 47:46.37 | 8:13.05 | 214987 | 251966
6 | 55:59.42 | 5:07.33 | 251967 | 275024
Range status and errors
Selected range
Filename F:\Music\Gliere conducts Gliere - Symphony No.2\CD.wav
Peak level 75.6 %
Extraction speed 7.2 X
Range quality 100.0 %
Test CRC F1549C87
Copy CRC F1549C87
Copy OK
No errors occurred
AccurateRip summary
Track 1 not present in database
Track 2 not present in database
Track 3 not present in database
Track 4 not present in database
Track 5 not present in database
Track 6 not present in database
None of the tracks are present in the AccurateRip database
End of status report
---- CUETools DB Plugin V2.1.6
[CTDB TOCID: 8jUsFOR_qylEbLtGmnH7k6I7LcI-] found
Submit result: 8jUsFOR_qylEbLtGmnH7k6I7LcI- has been uploaded
Track | CTDB Status
1 | (1/1) Differs in 23 samples @06:28:46,09:56:60
2 | (1/1) Accurately ripped
3 | (1/1) Accurately ripped
4 | (1/1) Accurately ripped
5 | (1/1) Differs in 12 samples @01:41:23
6 | (1/1) Accurately ripped
If you are sure that your rip contains errors, you can use CUETools to repair it.
==== Log checksum 10D72136B91A7D7FEE9F295BFD7B55AECF1CEC4C889CD2C18B1D6FD04906666C ====

Содержание индексной карты (.CUE)

REM GENRE Classical
REM DATE 1996
REM DISCID 540E5306
REM COMMENT "ExactAudioCopy v1.1"
PERFORMER "All-Union Radio Symphony Orchestra - R.Gliere"
TITLE "Gliere conducts Gliere: Symphony No.2"
FILE "CD.flac" WAVE
TRACK 01 AUDIO
TITLE "Symphony No.2: I. Allegro pesante"
PERFORMER "All-Union Radio Symphony Orchestra - R.Gliere"
INDEX 01 00:00:00
TRACK 02 AUDIO
TITLE "II. Allegro giocoso"
PERFORMER "All-Union Radio Symphony Orchestra - R.Gliere"
INDEX 00 14:34:15
INDEX 01 14:36:22
TRACK 03 AUDIO
TITLE "III. Andante con variazioni"
PERFORMER "All-Union Radio Symphony Orchestra - R.Gliere"
INDEX 00 22:19:12
INDEX 01 22:21:00
TRACK 04 AUDIO
TITLE "IV. Allegro vivace"
PERFORMER "All-Union Radio Symphony Orchestra - R.Gliere"
INDEX 00 36:15:67
INDEX 01 36:18:55
TRACK 05 AUDIO
TITLE "Concert for Coloratura soprano: I. Andante"
PERFORMER "E.Miroshnichenko; Bolshoi Symphony Orchestra - M.Ermler"
INDEX 00 47:41:65
INDEX 01 47:46:37
TRACK 06 AUDIO
TITLE "II. Allegro"
PERFORMER "E.Miroshnichenko; Bolshoi Symphony Orchestra - M.Ermler"
INDEX 00 55:57:35
INDEX 01 55:59:42
-



Показать сообщения:    

Текущее время: 08-Дек 19:12

Часовой пояс: UTC + 3


Вы не можете начинать темы
Вы не можете отвечать на сообщения
Вы не можете редактировать свои сообщения
Вы не можете удалять свои сообщения
Вы не можете голосовать в опросах
Вы не можете прикреплять файлы к сообщениям
Вы не можете скачивать файлы