(Classical, chamber) Иоахим Рафф – Струнные квартеты № 6 и 7 / Joachim Raff – String quartets Nos. 6 & 7 (Mannheimer Streichquartett: Andreas krecher, Shinkyung Kim, Niklas Schwarz, Armin Fromm) - 2004, FLAC (image+.cue) lossless


 

[Цитировать]

Иоахим Рафф – Струнные квартеты № 6 и 7 / Joachim Raff – String quartets Nos. 6 & 7 (Mannheimer Streichquartett: Andreas krecher, Shinkyung Kim, Niklas Schwarz, Armin Fromm)
Жанр: Classical, chamber
Страна-производитель диска: Германия
Год издания диска: 2004
Издатель (лейбл): cpo
Номер по каталогу: 777 003-2
Дата записи: 18—20 марта 2003 г., Баден-Баден.
Аудиокодек: FLAC
Тип рипа: image+.cue
Битрейт аудио: lossless
Продолжительность: 01:03:54
Источник: web
Наличие сканов в содержимом раздачи: да (обложка плохого качества; буклета нет)
Треклист:-Йозеф Иоахим Рафф (1822—1882).
Струнные квартеты, диск I.-Три струнных квартета, op. 192 (1874, опубл. 1876).
Квартет № 1 (6) c-moll «Сюита в старинной форме» [31:20].
01. I. Прелюдия. Larghetto. — Allegro.
02. II. Менуэт. Allegro.
03. III. Гавот и мюзет. Allegro.
04. IV. Ария. Largo.
05. V. Жига-Finale. Vivace.
Квартет № 2 (7) D-dur «Прекрасная мельничиха», циклическая поэма (Cycklische Tondichtung) [32:20].
06. I. Юноша (Der Jüngling). Allegretto.
07. II. Мельница (Die Mühle). Allegro.
08. III. Мельничиха (Die Müllerin). Andante, quasi adagietto.
09. IV. Волнение (Unruhe) Allegro.
10. V. Объяснение (Erklärung). Andantino, quasi allegretto.
11. VI. Перед свадьбой (Zum Polterabend). Vivace.-Исполнители:
Mannheimer Streichquartett:
Andreas Krecher (I скрипка),
Shinkyung Kim (II скрипка),
Niklas Schwarz (альт),
Armin Fromm (виолончель).-

Лог создания рипа

CUERipper v2.1.4 Copyright (C) 2008-12 Grigory Chudov
Extraction logfile from : 01/04/2015 18:00:27
Used drive : DTSOFT - BDROM
Read offset correction : 0
Read command : BEh, 12h, BEh, 16 blocks at a time
Secure mode : 0
Disk length : 63:52:07
AccurateRip : ok
TOC of the extracted CD
Track | Start | Length | Start sector | End sector
---------------------------------------------------------
1 | 0:00.00 | 8:42.59 | 0 | 39208
2 | 8:42.59 | 3:55.32 | 39209 | 56865
3 | 12:38.16 | 3:28.74 | 56866 | 72539
4 | 16:07.15 | 9:02.68 | 72540 | 113257
5 | 25:10.08 | 6:20.55 | 113258 | 141812
6 | 31:30.63 | 8:02.57 | 141813 | 178019
7 | 39:33.45 | 2:07.16 | 178020 | 187560
8 | 41:40.61 | 9:34.58 | 187561 | 230668
9 | 51:15.44 | 2:16.03 | 230669 | 240871
10 | 53:31.47 | 3:02.42 | 240872 | 254563
11 | 56:34.14 | 7:17.68 | 254564 | 287406
Track | Pregap | Indexes
---------------------------------------------------------
1 | 00:02:00 | 1
2 | 00:00:00 | 1
3 | 00:00:00 | 1
4 | 00:00:00 | 1
5 | 00:00:00 | 1
6 | 00:00:00 | 1
7 | 00:00:00 | 1
8 | 00:00:00 | 1
9 | 00:00:00 | 1
10 | 00:00:00 | 1
11 | 00:00:00 | 1
Destination files
C:\Users\a\Music\Mannheimer Streichquartett (Andreas Krecher, Shin-Kyung\2003 - Raff - String Quartet No.6, op.192-1 - No.7, op.192-2 '\Mannheimer Streichquartett (Andreas Krecher, Shin-Kyung - Raff - String Quartet No.6, op.192-1 - No.7, op.192-2 '.flac
[CTDB TOCID: xFnz1tZ8KwW59496UYN42p_At84-] disk not present in database.
AccurateRip summary
[AccurateRip ID: 001b821b-00eb8c02-980ef80b] found.
Track [ CRC | V2 ] Status
01 [5707ca37|8716052e] (0+0/4) No match
02 [7b42043b|c71eca11] (0+0/4) No match
03 [3ff49954|33e1c531] (0+0/4) No match
04 [13c7f5f3|41d48eac] (0+0/4) No match
05 [17c8dc0d|181cf334] (0+0/4) No match
06 [c6978414|de1f3c54] (0+0/4) No match
07 [7e774cea|fbf9aa13] (0+0/4) No match
08 [713a37a0|12aaecf7] (0+0/4) No match
09 [408a7131|6f5fef0c] (0+0/4) No match
10 [ffe52145|120c6849] (0+0/4) No match
11 [5b97d35f|c1102220] (0+0/4) No match
Offsetted by 6:
01 [4c51fc9a] (0/4) No match (V2 was not tested)
02 [4465aeb8] (0/4) No match (V2 was not tested)
03 [5f4353aa] (0/4) No match (V2 was not tested)
04 [e859c64e] (0/4) No match (V2 was not tested)
05 [a85f0aec] (0/4) No match (V2 was not tested)
06 [a06bc981] (0/4) No match (V2 was not tested)
07 [f8eb0703] (0/4) No match (V2 was not tested)
08 [7bf9b665] (0/4) No match (V2 was not tested)
09 [637626a6] (0/4) No match (V2 was not tested)
10 [0df1d119] (0/4) No match (V2 was not tested)
11 [3e3aa723] (0/4) No match (V2 was not tested)
Track Peak [ CRC32 ] [W/O NULL]
-- 98.9 [9AC47FE4] [F36117EB]
01 72.7 [BCA6F97B] [80A409C7]
02 67.7 [1FE778CD] [526FA480]
03 77.8 [61AC730A] [FD237318]
04 65.4 [59996A41] [19BF2CF6]
05 89.5 [8D2044AC] [38E8C079]
06 98.9 [A1F20E2F] [F3E30177]
07 81.6 [18E74CAB] [49550BDD]
08 58.6 [9218F97D] [64212CF7]
09 60.3 [B9D65AB5] [BF176473]
10 58.6 [5B09780F] [A6704B52]
11 87.2 [21DB9A71] [FBFBFE15]
End of status report

Содержание индексной карты (.CUE)

REM DISCID 980EF80B
PERFORMER "Mannheimer Streichquartett"
TITLE "Raff – String quartets Nos. 6 & 7 – Mannheimer Streichquartett"
REM DATE 2003
REM GENRE "Classical"
FILE "Raff – String quartets Nos. 6 & 7 – Mannheimer Streichquartett.flac" WAVE
TRACK 01 AUDIO
PERFORMER "Mannheimer Streichquartett"
TITLE "String Quartet No. 6 in C minor 'Suite in alterer Form', Op. 192 no. 1 - I. Praeludium. Larghetto - Allegro"
INDEX 01 00:00:00
TRACK 02 AUDIO
PERFORMER "Mannheimer Streichquartett"
TITLE "String Quartet No. 6 in C minor 'Suite in alterer Form', Op. 192 no. 1 - II. Menuett. Allegro"
INDEX 01 08:42:59
TRACK 03 AUDIO
PERFORMER "Mannheimer Streichquartett"
TITLE "String Quartet No. 6 in C minor 'Suite in alterer Form', Op. 192 no. 1 - III. Gavotte and Musette. Allegro"
INDEX 01 12:38:16
TRACK 04 AUDIO
PERFORMER "Mannheimer Streichquartett"
TITLE "String Quartet No. 6 in C minor 'Suite in alterer Form', Op. 192 no. 1 - IV. Arie. Largo"
INDEX 01 16:07:15
TRACK 05 AUDIO
PERFORMER "Mannheimer Streichquartett"
TITLE "String Quartet No. 6 in C minor 'Suite in alterer Form', Op. 192 no. 1 - V. Gigue - Finale. Vivace"
INDEX 01 25:10:08
TRACK 06 AUDIO
PERFORMER "Mannheimer Streichquartett"
TITLE "String Quartet No. 7 in D major 'Die schone Mullerin', Op. 192 no. 2 - I. Der Jungling. Allegretto"
INDEX 01 31:30:63
TRACK 07 AUDIO
PERFORMER "Mannheimer Streichquartett"
TITLE "String Quartet No. 7 in D major 'Die schone Mullerin', Op. 192 no. 2 - II. Die Muhle. Allegro"
INDEX 01 39:33:45
TRACK 08 AUDIO
PERFORMER "Mannheimer Streichquartett"
TITLE "String Quartet No. 7 in D major 'Die schone Mullerin', Op. 192 no. 2 - III. Die Mullerin. Andante, quasi adagietto"
INDEX 01 41:40:61
TRACK 09 AUDIO
PERFORMER "Mannheimer Streichquartett"
TITLE "String Quartet No. 7 in D major 'Die schone Mullerin', Op. 192 no. 2 - IV. Unruhe. Allegro"
INDEX 01 51:15:44
TRACK 10 AUDIO
PERFORMER "Mannheimer Streichquartett"
TITLE "String Quartet No. 7 in D major 'Die schone Mullerin', Op. 192 no. 2 - V. Erklarung. Andantino, quasi allegretto"
INDEX 01 53:31:47
TRACK 11 AUDIO
PERFORMER "Mannheimer Streichquartett"
TITLE "String Quartet No. 7 in D major 'Die schone Mullerin', Op. 192 no. 2 - VI. Zum Polterabend. Vivace"
INDEX 01 56:34:14

Содержание индексной карты (.CUE) с выставленными зазорами

REM DISCID 980EF80B
PERFORMER "Mannheimer Streichquartett"
TITLE "Raff – String quartets Nos. 6 & 7 – Mannheimer Streichquartett"
REM DATE 2003
REM GENRE "Classical"
FILE "Raff – String quartets Nos. 6 & 7 – Mannheimer Streichquartett.flac" WAVE
TRACK 01 AUDIO
TITLE "String Quartet No. 6 in C minor 'Suite in alterer Form', Op. 192 no. 1 - I. Praeludium. Larghetto - Allegro"
PERFORMER "Mannheimer Streichquartett"
INDEX 01 00:00:00
TRACK 02 AUDIO
TITLE "String Quartet No. 6 in C minor 'Suite in alterer Form', Op. 192 no. 1 - II. Menuett. Allegro"
PERFORMER "Mannheimer Streichquartett"
INDEX 00 08:41:35
INDEX 01 08:42:59
TRACK 03 AUDIO
TITLE "String Quartet No. 6 in C minor 'Suite in alterer Form', Op. 192 no. 1 - III. Gavotte and Musette. Allegro"
PERFORMER "Mannheimer Streichquartett"
INDEX 00 12:35:58
INDEX 01 12:38:16
TRACK 04 AUDIO
TITLE "String Quartet No. 6 in C minor 'Suite in alterer Form', Op. 192 no. 1 - IV. Arie. Largo"
PERFORMER "Mannheimer Streichquartett"
INDEX 00 16:06:14
INDEX 01 16:07:15
TRACK 05 AUDIO
TITLE "String Quartet No. 6 in C minor 'Suite in alterer Form', Op. 192 no. 1 - V. Gigue - Finale. Vivace"
PERFORMER "Mannheimer Streichquartett"
INDEX 00 25:06:74
INDEX 01 25:10:08
TRACK 06 AUDIO
TITLE "String Quartet No. 7 in D major 'Die schone Mullerin', Op. 192 no. 2 - I. Der Jungling. Allegretto"
PERFORMER "Mannheimer Streichquartett"
INDEX 00 31:20:62
INDEX 01 31:30:63
TRACK 07 AUDIO
TITLE "String Quartet No. 7 in D major 'Die schone Mullerin', Op. 192 no. 2 - II. Die Muhle. Allegro"
PERFORMER "Mannheimer Streichquartett"
INDEX 00 39:32:51
INDEX 01 39:33:45
TRACK 08 AUDIO
TITLE "String Quartet No. 7 in D major 'Die schone Mullerin', Op. 192 no. 2 - III. Die Mullerin. Andante, quasi adagietto"
PERFORMER "Mannheimer Streichquartett"
INDEX 00 41:39:33
INDEX 01 41:40:61
TRACK 09 AUDIO
TITLE "String Quartet No. 7 in D major 'Die schone Mullerin', Op. 192 no. 2 - IV. Unruhe. Allegro"
PERFORMER "Mannheimer Streichquartett"
INDEX 00 51:13:08
INDEX 01 51:15:44
TRACK 10 AUDIO
TITLE "String Quartet No. 7 in D major 'Die schone Mullerin', Op. 192 no. 2 - V. Erklarung. Andantino, quasi allegretto"
PERFORMER "Mannheimer Streichquartett"
INDEX 00 53:29:37
INDEX 01 53:31:47
TRACK 11 AUDIO
TITLE "String Quartet No. 7 in D major 'Die schone Mullerin', Op. 192 no. 2 - VI. Zum Polterabend. Vivace"
PERFORMER "Mannheimer Streichquartett"
INDEX 01 56:34:14
INDEX 02 63:49:09
-Иоахим Рафф. Струнные квартеты № 2—4 и 8 (Mannheimer Streichquartett).



Показать сообщения:    

Текущее время: 04-Дек 11:12

Часовой пояс: UTC + 3


Вы не можете начинать темы
Вы не можете отвечать на сообщения
Вы не можете редактировать свои сообщения
Вы не можете удалять свои сообщения
Вы не можете голосовать в опросах
Вы не можете прикреплять файлы к сообщениям
Вы не можете скачивать файлы