(Classical, chamber) Иоахим Рафф – Струнные квартеты № 2, 3, 4 и 8 / Joachim Raff – String quartets Nos. 2, 3, 4 & 8 (Mannheimer Streichquartett: Andreas krecher, Shinkyung Kim, Niklas Schwarz, Armin Fromm) - 2015, FLAC (tracks+.cue) lossless


 

[Цитировать]

Иоахим Рафф – Струнные квартеты № 2, 3, 4 и 8 / Joachim Raff – String quartets Nos. 2, 3, 4 & 8 (Mannheimer Streichquartett: Andreas krecher, Shinkyung Kim, Niklas Schwarz, Armin Fromm)
Жанр: Classical, chamber
Страна-производитель диска: Германия
Год издания диска: 2015
Издатель (лейбл): cpo
Номер по каталогу: 777 004-2
Дата записи: 4—6 июня 2007 г. (Cd 1); 28—30 ноября 2006 г. (Cd 2).
Аудиокодек: FLAC
Тип рипа: tracks+.cue
Битрейт аудио: lossless
Продолжительность: 01:14:01 + 00:53:24
Источник: web
Наличие сканов в содержимом раздачи: да
Треклист:-Йозеф Иоахим Рафф (1822—1882).
Струнные квартеты, диски II и III.-Cd 1.
Квартет № 2 A-dur, op. 90 (1857, опубл. 1862).
01. I. Rasch, jedoch ruhig [15:02].
02. II. Rasch [07:05].
03. III. Langsam, doch nicht schleppend [09:28].
04. IV. Rasch [09:08].
Квартет № 3 e-moll, op. 136 (1866, опубл. 1868).
05. I. Allegro [12:09].
06. II. Allegro con moto [05:08].
07. III. Andante con moto [10:17].
08. IV. Allegro con spirito [06:03].
Cd 2.
Квартет № 4 a-moll, op. 137 (1867, опубл. 1869).
01. I. Allegro patetico [09:46].
02. II. Allegro, non troppo vivo, quasi allegretto [03:48].
03. III. Andante [09:56].
04. IV. Andante. — Allegro patetico. — Presto (Tempo del Finale). — Andante. — Presto (Finale) [06:58].
Три струнных квартета, op. 192 (1874, опубл. 1876).
Квартет № 3 (8) C-dur «Сюита в форме канонов».
05. I. Марш. Allegro [04:31].
06. II. Сарабанда. Andante, moderato assai [02:19].
07. III. Каприччо. Vivace [02:28].
08. IV. Ария (двойной канон). Quasi larghetto [04:43].
09. V. Гавот и мюзет. Allegro vivace [02:06].
10. VI. Менуэт. Allegro molto [03:32].
11. VII. Жига. Allegro [02:58].-Исполнители:
Mannheimer Streichquartett:
Andreas Krecher (I скрипка),
Shinkyung Kim (II скрипка),
Niklas Schwarz (альт),
Armin Fromm (виолончель).-

Содержание индексных карт (.CUE)Cd 1.

REM DATE 2007
REM GENRE "Classical"
PERFORMER "Mannheimer Streichquartett"
TITLE "Raff – String quartets Nos. 2 & 3 – Mannheimer Streichquartett"
FILE "01. String Quartet No. 2 in A Major, Op. 90 - I. Rasch, jedoch ruhig.flac" WAVE
TRACK 01 AUDIO
TITLE "String Quartet No. 2 in A Major, Op. 90 - I. Rasch, jedoch ruhig"
PERFORMER "Mannheimer Streichquartett"
INDEX 00 00:00:00
INDEX 01 00:00:56
FILE "02. String Quartet No. 2 in A Major, Op. 90 - II. Rasch.flac" WAVE
TRACK 02 AUDIO
TITLE "String Quartet No. 2 in A Major, Op. 90 - II. Rasch"
PERFORMER "Mannheimer Streichquartett"
INDEX 01 00:00:00
TRACK 03 AUDIO
TITLE "String Quartet No. 2 in A Major, Op. 90 - III. Langsam, doch nicht schleppend"
PERFORMER "Mannheimer Streichquartett"
INDEX 00 07:04:19
FILE "03. String Quartet No. 2 in A Major, Op. 90 - III. Langsam, doch nicht schleppend.flac" WAVE
INDEX 01 00:00:00
TRACK 04 AUDIO
TITLE "String Quartet No. 2 in A Major, Op. 90 - IV. Rasch"
PERFORMER "Mannheimer Streichquartett"
INDEX 00 09:26:57
FILE "04. String Quartet No. 2 in A Major, Op. 90 - IV. Rasch.flac" WAVE
INDEX 01 00:00:00
TRACK 05 AUDIO
TITLE "String Quartet No. 3 in E Minor, Op. 136 - I. Allegro"
PERFORMER "Mannheimer Streichquartett"
FILE "05. String Quartet No. 3 in E Minor, Op. 136 - I. Allegro.flac" WAVE
INDEX 01 00:00:00
TRACK 06 AUDIO
TITLE "String Quartet No. 3 in E Minor, Op. 136 - II. Allegro con moto"
PERFORMER "Mannheimer Streichquartett"
INDEX 00 12:06:47
FILE "06. String Quartet No. 3 in E Minor, Op. 136 - II. Allegro con moto.flac" WAVE
INDEX 01 00:00:00
TRACK 07 AUDIO
TITLE "String Quartet No. 3 in E Minor, Op. 136 - III. Andante con moto"
PERFORMER "Mannheimer Streichquartett"
INDEX 00 05:06:66
FILE "07. String Quartet No. 3 in E Minor, Op. 136 - III. Andante con moto.flac" WAVE
INDEX 01 00:00:00
TRACK 08 AUDIO
TITLE "String Quartet No. 3 in E Minor, Op. 136 - IV. Allegro con spirito"
PERFORMER "Mannheimer Streichquartett"
INDEX 00 10:13:38
FILE "08. String Quartet No. 3 in E Minor, Op. 136 - IV. Allegro con spirito.flac" WAVE
INDEX 01 00:00:00
INDEX 02 06:00:51

Cd 2.

REM DATE 2006
REM GENRE "Classical"
PERFORMER "Mannheimer Streichquartett"
TITLE "Raff – String quartets Nos. 4 & 8 – Mannheimer Streichquartett"
FILE "01. String Quartet No. 4 in A Minor, Op. 137 - I. Allegro patetico.flac" WAVE
TRACK 01 AUDIO
TITLE "String Quartet No. 4 in A Minor, Op. 137 - I. Allegro patetico"
PERFORMER "Mannheimer Streichquartett"
INDEX 00 00:00:00
INDEX 01 00:00:54
TRACK 02 AUDIO
TITLE "String Quartet No. 4 in A Minor, Op. 137 - II. Allegro, non troppo vivo, quasi allegretto"
PERFORMER "Mannheimer Streichquartett"
INDEX 00 09:43:55
FILE "02. String Quartet No. 4 in A Minor, Op. 137 - II. Allegro, non troppo vivo, quasi allegretto.flac" WAVE
INDEX 01 00:00:00
FILE "03. String Quartet No. 4 in A Minor, Op. 137 - III. Andante.flac" WAVE
TRACK 03 AUDIO
TITLE "String Quartet No. 4 in A Minor, Op. 137 - III. Andante"
PERFORMER "Mannheimer Streichquartett"
INDEX 01 00:00:00
TRACK 04 AUDIO
TITLE "String Quartet No. 4 in A Minor, Op. 137 - IV. Finale. Presto"
PERFORMER "Mannheimer Streichquartett"
INDEX 00 09:55:28
FILE "04. String Quartet No. 4 in A Minor, Op. 137 - IV. Finale. Presto.flac" WAVE
INDEX 01 00:00:00
TRACK 05 AUDIO
TITLE "String Quartet No. 8 in C Major 'Suite in Kanonenform', Op. 192 no. 3 - I. Marsch. Allegro"
PERFORMER "Mannheimer Streichquartett"
FILE "05. String Quartet No. 8 in C Major 'Suite in Kanonenform', Op. 192 no. 3 - I. Marsch. Allegro.flac" WAVE
INDEX 01 00:00:00
TRACK 06 AUDIO
TITLE "String Quartet No. 8 in C Major 'Suite in Kanonenform', Op. 192 no. 3 - II. Sarabande. Andante, moderato assai"
PERFORMER "Mannheimer Streichquartett"
INDEX 00 04:30:16
FILE "06. String Quartet No. 8 in C Major 'Suite in Kanonenform', Op. 192 no. 3 - II. Sarabande. Andante, moderato assai.flac" WAVE
INDEX 01 00:00:00
TRACK 07 AUDIO
TITLE "String Quartet No. 8 in C Major 'Suite in Kanonenform', Op. 192 no. 3 - III. Capriccio. Vivace"
PERFORMER "Mannheimer Streichquartett"
FILE "07. String Quartet No. 8 in C Major 'Suite in Kanonenform', Op. 192 no. 3 - III. Capriccio. Vivace.flac" WAVE
INDEX 01 00:00:00
TRACK 08 AUDIO
TITLE "String Quartet No. 8 in C Major 'Suite in Kanonenform', Op. 192 no. 3 - IV. Arie (Doppelkanon). Quasi larghetto"
PERFORMER "Mannheimer Streichquartett"
FILE "08. String Quartet No. 8 in C Major 'Suite in Kanonenform', Op. 192 no. 3 - IV. Arie (Doppelkanon). Quasi larghetto.flac" WAVE
INDEX 01 00:00:00
TRACK 09 AUDIO
TITLE "String Quartet No. 8 in C Major 'Suite in Kanonenform', Op. 192 no. 3 - V. Gavotte und Musette. Allegro"
PERFORMER "Mannheimer Streichquartett"
INDEX 00 04:42:48
FILE "09. String Quartet No. 8 in C Major 'Suite in Kanonenform', Op. 192 no. 3 - V. Gavotte und Musette. Allegro.flac" WAVE
INDEX 01 00:00:00
TRACK 10 AUDIO
TITLE "String Quartet No. 8 in C Major 'Suite in Kanonenform', Op. 192 no. 3 - VI. Menuett. Allegro molto"
PERFORMER "Mannheimer Streichquartett"
INDEX 00 02:05:33
FILE "10. String Quartet No. 8 in C Major 'Suite in Kanonenform', Op. 192 no. 3 - VI. Menuett. Allegro molto.flac" WAVE
INDEX 01 00:00:00
TRACK 11 AUDIO
TITLE "String Quartet No. 8 in C Major 'Suite in Kanonenform', Op. 192 no. 3 - VII. Gigue. Allegro"
PERFORMER "Mannheimer Streichquartett"
FILE "11. String Quartet No. 8 in C Major 'Suite in Kanonenform', Op. 192 no. 3 - VII. Gigue. Allegro.flac" WAVE
INDEX 01 00:00:00

Отчеты AudiocheckerCd 1.

AUDIOCHECKER v2.0 beta (build 457) - by Dester - opdester@freemail.hu
~~~~~~~~~~~~~~~~~~~~~~~~~~~~~~~~~~
-=== DO NOT EDIT THIS FILE! ===-
Path: ...\Raff – String quartets Nos. 2 & 3
1 -=- 01. String Quartet No. 2 in A Major, Op. 90 - I. Rasch, jedoch ruhig.flac -=- CDDA (100%)
2 -=- 02. String Quartet No. 2 in A Major, Op. 90 - II. Rasch.flac -=- CDDA (100%)
3 -=- 03. String Quartet No. 2 in A Major, Op. 90 - III. Langsam, doch nicht schleppend.flac -=- CDDA (100%)
4 -=- 04. String Quartet No. 2 in A Major, Op. 90 - IV. Rasch.flac -=- CDDA (99%)
5 -=- 05. String Quartet No. 3 in E Minor, Op. 136 - I. Allegro.flac -=- CDDA (100%)
6 -=- 06. String Quartet No. 3 in E Minor, Op. 136 - II. Allegro con moto.flac -=- CDDA (99%)
7 -=- 07. String Quartet No. 3 in E Minor, Op. 136 - III. Andante con moto.flac -=- CDDA (99%)
8 -=- 08. String Quartet No. 3 in E Minor, Op. 136 - IV. Allegro con spirito.flac -=- CDDA (100%)
Summary 99,63% CDDA
67045124

Cd 2.

AUDIOCHECKER v2.0 beta (build 457) - by Dester - opdester@freemail.hu
~~~~~~~~~~~~~~~~~~~~~~~~~~~~~~~~~~
-=== DO NOT EDIT THIS FILE! ===-
Path: ...\Raff – String quartets Nos. 4 & 8
01 -=- 01. String Quartet No. 4 in A Minor, Op. 137 - I. Allegro patetico.flac -=- CDDA (100%)
02 -=- 02. String Quartet No. 4 in A Minor, Op. 137 - II. Allegro, non troppo vivo, quasi allegretto.flac -=- CDDA (100%)
03 -=- 03. String Quartet No. 4 in A Minor, Op. 137 - III. Andante.flac -=- CDDA (87%)
04 -=- 04. String Quartet No. 4 in A Minor, Op. 137 - IV. Finale. Presto.flac -=- CDDA (100%)
05 -=- 05. String Quartet No. 8 in C Major 'Suite in Kanonenform', Op. 192 no. 3 - I. Marsch. Allegro.flac -=- CDDA (100%)
06 -=- 06. String Quartet No. 8 in C Major 'Suite in Kanonenform', Op. 192 no. 3 - II. Sarabande. Andante, moderato assai.flac -=- CDDA (100%)
07 -=- 07. String Quartet No. 8 in C Major 'Suite in Kanonenform', Op. 192 no. 3 - III. Capriccio. Vivace.flac -=- CDDA (100%)
08 -=- 08. String Quartet No. 8 in C Major 'Suite in Kanonenform', Op. 192 no. 3 - IV. Arie (Doppelkanon). Quasi larghetto.flac -=- CDDA (85%)
09 -=- 09. String Quartet No. 8 in C Major 'Suite in Kanonenform', Op. 192 no. 3 - V. Gavotte und Musette. Allegro.flac -=- CDDA (100%)
10 -=- 10. String Quartet No. 8 in C Major 'Suite in Kanonenform', Op. 192 no. 3 - VI. Menuett. Allegro molto.flac -=- CDDA (100%)
11 -=- 11. String Quartet No. 8 in C Major 'Suite in Kanonenform', Op. 192 no. 3 - VII. Gigue. Allegro.flac -=- CDDA (100%)
Summary 97,45% CDDA
59966420
-Индексные карты неоригинальные.-Иоахим Рафф. Струнные квартеты № 6 и 7 (Mannheimer Streichquartett).



Показать сообщения:    

Текущее время: 05-Дек 11:31

Часовой пояс: UTC + 3


Вы не можете начинать темы
Вы не можете отвечать на сообщения
Вы не можете редактировать свои сообщения
Вы не можете удалять свои сообщения
Вы не можете голосовать в опросах
Вы не можете прикреплять файлы к сообщениям
Вы не можете скачивать файлы