(Classical) Holst, Elgar - The Planets; Enigma Variations - London Symphony Orchestra, Eugen Jochum, Boston Symphony Orchestra, William Steinberg - 1994, FLAC (image+.cue) lossless


 

[Цитировать]

Holst, Elgar - The Planets; Enigma Variations
Жанр: Classical
Страна-производитель диска: Germany
Год издания диска: 1994
Издатель (лейбл): Deutsche Grammophon
Номер по каталогу: 439 446-2 10GCL
Дата записи: 1971, 1975
Аудиокодек: FLAC
Тип рипа: image+.cue
Битрейт аудио: lossless
Продолжительность: 01:18:13
Источник: собственный рип
Наличие сканов в содержимом раздачи: да
Треклист:
Elgar - Variations on an Original Theme ("Enigma"), Op. 36
01. Enigma: Andante (1:32)
02. I. (C.A.E.): L'istesso tempo (1:43)
03. II. (H.D.S.P.): Allegro (0:49)
04. III. (R.B.T.): Allegretto (1:26)
05. IV. (W.M.B.): Allegro di molto (0:31)
06. V. (R.P.A.): Moderato (1:54)
07. VI. (Ysobel.): Andantino (1:21)
08. VII. (Troyte.): Presto (0:59)
09. VIII. (W.N.): Allegretto (1:59)
10. IX. (Nimrod.): Adagio (5:05)
11. X. (Dorabella.) Intermezzo : Allegretto (2:44)
12. XI. (G.R.S.) : Allegro di molto (1:00)
13. XII. (B.G.N.) : Andante (2:37)
14. XIII. (***) Romanza: Moderato (2:58)
15. XIV. (E.D.U.) Finale: Allegro - Presto (5:23)
Holst - The Planets, op. 32
16. Mars, The Bringer Of War (6:37)
17. Venus, The Bringer Of Peace (7:28)
18. Mercury, The Winged Messenger (4:00)
19. Jupiter, The Bringer of Jollity (8:03)
20. Saturn, The Bringer Of Old Age (7:49)
21. Uranus, The Magician (5:28)
22. Neptune, The Mystic (6:46)

Исполнители:
London Symphony Orchestra, Eugen Jochum (Enigma)
Boston Symphony Orchestra, William Steinberg (The Planets)

Лог создания рипа

Exact Audio Copy V1.0 beta 3 from 29. August 2011
Отчёт EAC об извлечении, выполненном 27. февраля 2016, 14:15
Elgar, Holst / Holst: The Planets; Elgar: Enigma Variations
Дисковод: ASUS DRW-1814BL Adapter: 1 ID: 1
Режим чтения : Достоверность
Использование точного потока : Да
Отключение кэша аудио : Да
Использование указателей C2 : Нет
Коррекция смещения при чтении : 6
Способность читать области Lead-in и Lead-out : Нет
Заполнение пропущенных сэмплов тишиной : Да
Удаление блоков с тишиной в начале и конце : Нет
При вычислениях CRC использовались нулевые сэмплы : Да
Интерфейс : Встроенный Win32-интерфейс для Win NT/2000
Выходной формат : Пользовательский кодировщик
Выбранный битрейт : 128 kBit/s
Качество : Высокий
Добавление ID3-тега : Нет
Утилита сжатия : C:\Program Files\Exact Audio Copy\Flac\flac.exe
Дополнительные параметры : -V -8 -T "Date=%year%" -T "Genre=%genre%" %source%
TOC извлечённого CD
Трек | Старт | Длительность | Начальный сектор | Конечный сектор
---------------------------------------------------------------------
1 | 0:00.33 | 1:31.62 | 33 | 6919
2 | 1:32.20 | 1:42.63 | 6920 | 14632
3 | 3:15.08 | 0:49.12 | 14633 | 18319
4 | 4:04.20 | 1:26.13 | 18320 | 24782
5 | 5:30.33 | 0:31.27 | 24783 | 27134
6 | 6:01.60 | 1:54.33 | 27135 | 35717
7 | 7:56.18 | 1:21.15 | 35718 | 41807
8 | 9:17.33 | 0:59.00 | 41808 | 46232
9 | 10:16.33 | 1:58.70 | 46233 | 55152
10 | 12:15.28 | 5:05.05 | 55153 | 78032
11 | 17:20.33 | 2:44.00 | 78033 | 90332
12 | 20:04.33 | 0:59.62 | 90333 | 94819
13 | 21:04.20 | 2:37.10 | 94820 | 106604
14 | 23:41.30 | 2:57.65 | 106605 | 119944
15 | 26:39.20 | 5:23.13 | 119945 | 144182
16 | 32:02.33 | 6:37.00 | 144183 | 173957
17 | 38:39.33 | 7:28.00 | 173958 | 207557
18 | 46:07.33 | 4:00.00 | 207558 | 225557
19 | 50:07.33 | 8:03.00 | 225558 | 261782
20 | 58:10.33 | 7:49.00 | 261783 | 296957
21 | 65:59.33 | 5:28.00 | 296958 | 321557
22 | 71:27.33 | 6:46.00 | 321558 | 352007
Характеристики диапазона извлечения и сообщения об ошибках
Выбранный диапазон
Имя файла C:\Documents and Settings\biotox\Рабочий стол\Новая папка (2)\Elgar, Holst - Holst- The Planets; Elgar- Enigma Variations.wav
Пиковый уровень 99.6 %
Скорость извлечения 8.1 X
Качество диапазона 100.0 %
CRC теста 9A49B120
CRC копии 9A49B120
Копирование... OK
Ошибок не произошло
AccurateRip: сводка
Трек 1 : извлечено точно (доверие 3) [80299142] (AR v2)
Трек 2 : извлечено точно (доверие 3) [5E7ED96A] (AR v2)
Трек 3 : извлечено точно (доверие 3) [964A3940] (AR v2)
Трек 4 : извлечено точно (доверие 3) [B863D56B] (AR v2)
Трек 5 : извлечено точно (доверие 3) [001EF54C] (AR v2)
Трек 6 : извлечено точно (доверие 3) [5B5ED858] (AR v2)
Трек 7 : извлечено точно (доверие 3) [188136B5] (AR v2)
Трек 8 : извлечено точно (доверие 3) [46042FB2] (AR v2)
Трек 9 : извлечено точно (доверие 2) [D269A98F] (AR v2)
Трек 10 : извлечено точно (доверие 3) [B1937D32] (AR v2)
Трек 11 : извлечено точно (доверие 3) [4E74C502] (AR v2)
Трек 12 : извлечено точно (доверие 3) [48D1D91C] (AR v2)
Трек 13 : извлечено точно (доверие 3) [111CACA8] (AR v2)
Трек 14 : извлечено точно (доверие 3) [F0A9B422] (AR v2)
Трек 15 : извлечено точно (доверие 3) [7EB8C1A8] (AR v2)
Трек 16 : извлечено точно (доверие 2) [0AB10DA0] (AR v2)
Трек 17 : извлечено точно (доверие 3) [9FF32FCD] (AR v2)
Трек 18 : извлечено точно (доверие 3) [1B287BEB] (AR v2)
Трек 19 : извлечено точно (доверие 3) [046F9E6C] (AR v2)
Трек 20 : извлечено точно (доверие 2) [0C7247E7] (AR v2)
Трек 21 : извлечено точно (доверие 3) [22B0FA0C] (AR v2)
Трек 22 : извлечено точно (доверие 3) [EA3C0D1B] (AR v2)
Все треки извлечены точно
Конец отчёта
==== Контрольная сумма отчёта 9D47846A995DD426D9416400686AFD0BBA725B15DD212314DF1240F23D2B6650 ====

Замер динамического диапазона

foobar2000 1.2.9 / Замер динамического диапазона (DR) 1.1.1
Дата отчёта: 2016-02-27 14:23:18
--------------------------------------------------------------------------------
Анализ: Elgar / Holst: The Planets; Elgar: Enigma Variations (1-15)
Holst / Holst: The Planets; Elgar: Enigma Variations (16-22)
--------------------------------------------------------------------------------
DR Пики RMS Продолжительность трека
--------------------------------------------------------------------------------
DR11 -11.59 дБ -28.34 дБ 1:32 01-Enigma Variations, for orchestra, Op. 36: Enigma: Andante
DR13 -1.31 дБ -21.80 дБ 1:43 02-Enigma Variations, for orchestra, Op. 36: I. (C.A.E.): L istesso tempo
DR13 -9.78 дБ -30.02 дБ 0:49 03-Enigma Variations, for orchestra, Op. 36: II. (H.D.S.P.): Allegro
DR15 -2.83 дБ -25.23 дБ 1:26 04-Enigma Variations, for orchestra, Op. 36: III. (R.B.T.): Allegretto
DR11 -0.41 дБ -15.45 дБ 0:31 05-Enigma Variations, for orchestra, Op. 36: IV. (W.M.B.): Allegro di molto
DR12 -7.10 дБ -25.81 дБ 1:54 06-Enigma Variations, for orchestra, Op. 36: V. (R.P.A.): Moderato
DR11 -3.44 дБ -28.27 дБ 1:21 07-Enigma Variations, for orchestra, Op. 36: VI. (Ysobel.): Andantino
DR14 -0.08 дБ -17.25 дБ 0:59 08-Enigma Variations, for orchestra, Op. 36: VII. (Troyte.): Presto
DR13 -7.61 дБ -26.00 дБ 1:59 09-Enigma Variations, for orchestra, Op. 36: VIII. (W.N.): Allegretto
DR13 -0.11 дБ -19.18 дБ 5:05 10-Enigma Variations, for orchestra, Op. 36: IX. (Nimrod.): Adagio
DR14 -16.39 дБ -36.15 дБ 2:44 11-Enigma Variations, for orchestra, Op. 36: X. (Dorabella.) Intermezzo : Allegr...
DR12 -0.08 дБ -15.89 дБ 1:00 12-Enigma Variations, for orchestra, Op. 36: XI. (G.R.S.) : Allegro di molto
DR12 -6.92 дБ -27.64 дБ 2:37 13-Enigma Variations, for orchestra, Op. 36: XII. (B.G.N.) : Andante
DR14 -5.57 дБ -29.97 дБ 2:58 14-Enigma Variations, for orchestra, Op. 36: XIII. (***) Romanza: Moderato
DR12 -0.03 дБ -16.06 дБ 5:23 15-Enigma Variations, for orchestra, Op. 36: XIV. (E.D.U.) Finale: Allegro - Presto
DR12 -0.17 дБ -14.87 дБ 6:37 16-The Planets, suite for orchestra & female chorus, Op. 32, H. 125: Mars, The B...
DR15 -6.18 дБ -28.07 дБ 7:28 17-The Planets, suite for orchestra & female chorus, Op. 32, H. 125: Venus, The ...
DR14 -2.46 дБ -23.56 дБ 4:00 18-The Planets, suite for orchestra & female chorus, Op. 32, H. 125: Mercury, Th...
DR12 -0.29 дБ -16.90 дБ 8:03 19-The Planets, suite for orchestra & female chorus, Op. 32, H. 125: Jupiter, Th...
DR15 -0.10 дБ -22.14 дБ 7:49 20-The Planets, suite for orchestra & female chorus, Op. 32, H. 125: Saturn, The...
DR12 -1.27 дБ -18.15 дБ 5:28 21-The Planets, suite for orchestra & female chorus, Op. 32, H. 125: Uranus, The...
DR11 -14.52 дБ -30.86 дБ 6:46 22-The Planets, suite for orchestra & female chorus, Op. 32, H. 125: Neptune, Th...
--------------------------------------------------------------------------------
Количество треков: 22
Реальные значения DR: DR13
Частота: 44100 Гц
Каналов: 2
Разрядность: 16
Битрейт: 589 кбит/с
Кодек: FLAC
================================================================================



Показать сообщения:    

Текущее время: 08-Дек 11:00

Часовой пояс: UTC + 3


Вы не можете начинать темы
Вы не можете отвечать на сообщения
Вы не можете редактировать свои сообщения
Вы не можете удалять свои сообщения
Вы не можете голосовать в опросах
Вы не можете прикреплять файлы к сообщениям
Вы не можете скачивать файлы