Пётр Лебедев. Человек, который взвесил свет (Сергей Виноградов) [2014, документальный, TVRip]


Статистика раздачи [Обновить пиров]
Размер:  512 MB   |    Зарегистрирован:  9 месяцев 27 дней   |    Скачан:  0 раз

Полного источника не было: Никогда

 
   
 
 
 

[Цитировать]

Пётр Лебедев. Человек, который взвесил свет
Дата/Год выпуска: 2014
Страна: Россия
Жанр: документальный
Продолжительность: 00:38:58
Перевод: Не требуется
Режиссер: Сергей Виноградов
Описание: В своем дневнике семнадцатилетний Петр Лебедев написал: "Самая высокая, чистая любовь, свойственная только человеку - любовь к науке, искусству и родине". Свою короткую и чрезвычайно плодотворную жизнь он прожил, сжигая себя без остатка. Петр Николаевич Лебедев экспериментально доказал давление света на твердые тела и этим вошел в историю мировой науки. Российская наука всегда будет чтить Лебедева как создателя русской физической школы. В основе фильма - драматическая история ученого и гражданина, основанная на эксклюзивном документальном материале.
Доп. информация: Автор сценария: Петр Виноградов
Фильм из цикла "Обратная сторона Луны"
Сэмпл: http://sendfile.su/1210878
качество: TVRip
формат: AVI
Видео: XviD, 1700 Кбит/сек, 720 x 432 (1.667) at 25.000 fps
Аудио: МР3, 128 Кбит/сек, 2 канала, 48,0 КГц

О проекте "Обратная сторона Луны"

Имена людей, впервые в истории человечества побывавших на Луне, известны всему миру. Это наши современники. Но Луна "обитаема" давно. Еще в средние века астрономы стали давать имена великих ученых объектам, находящимся на Луне. Существует международная комиссия, которая самым серьезным образом рассматривает претендентов, выдвинутых научным сообществом на право быть увековеченным на карте Луны. При самых разных критериях отбора непреложным остается одно правило - репутация ученого должна быть безупречной. Быть нанесенным на карту Луны - это самое высокое признание человечеством вклада ученого в науку. Нобелевские лауреаты известны в мире довольно широко, имена лунных объектов известны лишь специалистам. Цикл "Обратная сторона Луны" исправит эту несправедливость.
В цикл вошли фильмы:
Александр Столетов. Первый физик России
Людвиг Больцман. Высокочтимый профессор, глубоко обожаемый Луи!
Петр Лебедев. Человек, который взвесил свет
Уильям Томсон. Абсолютная величина

MediaInfo

Общее
Полное имя : T:\Мои раздачи\Пётр Лебедев. Человек, который взвесил свет (2014)\Пётр Лебедев. Человек, который взвесил свет (2014).avi
Формат : AVI
Формат/Информация : Audio Video Interleave
Размер файла : 512 Мбайт
Продолжительность : 38 м.
Общий поток : 1838 Кбит/сек
Программа кодирования : VirtualDubMod 1.5.10.2 (build 2540/release)
Библиотека кодирования : VirtualDubMod build 2540/release
Видео
Идентификатор : 0
Формат : MPEG-4 Visual
Профиль формата : Advanced Simple@L5
Параметр BVOP формата : 2
Параметр QPel формата : Нет
Параметр GMC формата : Без точки перехода
Параметр матрицы формата : Default (H.263)
Идентификатор кодека : XVID
Идентификатор кодека/Подсказка : XviD
Продолжительность : 38 м.
Битрейт : 1700 Кбит/сек
Ширина : 720 пикселей
Высота : 432 пикселя
Соотношение сторон : 5:3
Частота кадров : 25,000 кадров/сек
Цветовое пространство : YUV
Субдискретизация насыщенности : 4:2:0
Битовая глубина : 8 бит
Тип развёртки : Прогрессивная
Метод сжатия : С потерями
Бит/(Пиксели*Кадры) : 0.219
Размер потока : 474 Мбайт (93%)
Библиотека кодирования : XviD 1.2.1 (UTC 2008-12-04)
Аудио
Идентификатор : 1
Формат : MPEG Audio
Версия формата : Version 1
Профиль формата : Layer 3
Идентификатор кодека : 55
Идентификатор кодека/Подсказка : MP3
Продолжительность : 38 м.
Вид битрейта : Постоянный
Битрейт : 128 Кбит/сек
Каналы : 2 канала
Частота : 48,0 КГц
Метод сжатия : С потерями
Размер потока : 35,7 Мбайт (7%)
Выравнивание : Соединение по промежуткам
Продолжительность промежутка : 40 мс. (1,00 видеокадр)
Время предзагрузки промежутка : 504 мс.
Библиотека кодирования : LAME3.98r
Настройки программы : -m s -V 4 -q 2 -lowpass 17 -b 128

Скриншоты

[teatrix.ru].t23211.torrent 
Торрент: Зарегистрирован [ 2016-03-21 00:31 ] · 5931855C2AE07EE40E986EA0016A4FEF620A54B0

Скачать .torrent

Скачать

11 KB

Статус: проверено
Скачан: 0 раз
Размер: 512 MB
terms.php



Быстрый ответ

Имя:

      
Для отправки сообщений необходимо включить JavaScript
Показать сообщения:    

Текущее время: 18-Янв 00:25

Часовой пояс: UTC + 3


Вы можете начинать темы
Вы можете отвечать на сообщения
Вы не можете редактировать свои сообщения
Вы не можете удалять свои сообщения
Вы не можете голосовать в опросах
Вы не можете прикреплять файлы к сообщениям
Вы можете скачивать файлы