Парашютистка Светлана Миллер (Вадим Сокуренко) [2013, документальный, TVRip]


Статистика раздачи [Обновить пиров]
Размер:  327 MB   |    Зарегистрирован:  8 месяцев 17 дней   |    Скачан:  0 раз

Полного источника не было: Никогда

 
   
 
 
 

[Цитировать]

Парашютистка Светлана Миллер
Дата/Год выпуска: 2013
Страна: Россия
Жанр: документальный
Продолжительность: 00:24:41
Перевод: Не требуется
Режиссер: Вадим Сокуренко
Описание: Если в жизни все пошло не так, небо подскажет как вновь поверить в себя. Там, на высоте 5 тысяч метров, находится заоблачное царство тишины и спокойствия. В звенящей прозрачной синеве исчезают печали и на их место приходит безудержный восторг. Светлана Миллер - рекордсменка женского парашютного рекорда "Жемчужины России". На аэродром пришла, пережив развод с любимым мужчиной, но уже после первого прыжка вернулась домой с сияющей улыбкой и упрямым желанием покорять небо.
Теперь она бороздит небесные просторы, глядя на мир сквозь перистые облака, и готовится установить очередной мировой рекорд. Под куполом парящего в воздушных потоках парашюта Светлана обрела свое счастье.
Сэмпл: http://sendfile.su/1208739
качество: TVRip
формат: AVI
Видео: XviD, 1714 Кбит/сек, 720 x 416 (1.731) at 25.000 fps
Аудио: МР3, 128 Кбит/сек, 2 канала, 48,0 КГц

MediaInfo

Общее
Полное имя : T:\Мои раздачи\Парашютистка Светлана Миллер (2013)\Парашютистка Светлана Миллер (2013).avi
Формат : AVI
Формат/Информация : Audio Video Interleave
Размер файла : 327 Мбайт
Продолжительность : 24 м.
Общий поток : 1851 Кбит/сек
Программа кодирования : VirtualDubModRus 1.5.10.2 (build 2542/release)
Библиотека кодирования : VirtualDubMod build 2542/release
Видео
Идентификатор : 0
Формат : MPEG-4 Visual
Профиль формата : Advanced Simple@L5
Параметр BVOP формата : 2
Параметр QPel формата : Нет
Параметр GMC формата : Без точки перехода
Параметр матрицы формата : Default (H.263)
Идентификатор кодека : XVID
Идентификатор кодека/Подсказка : XviD
Продолжительность : 24 м.
Битрейт : 1714 Кбит/сек
Ширина : 720 пикселей
Высота : 416 пикселей
Соотношение сторон : 1,731
Частота кадров : 25,000 кадров/сек
Цветовое пространство : YUV
Субдискретизация насыщенности : 4:2:0
Битовая глубина : 8 бит
Тип развёртки : Прогрессивная
Метод сжатия : С потерями
Бит/(Пиксели*Кадры) : 0.229
Размер потока : 302 Мбайт (93%)
Библиотека кодирования : XviD 1.2.1 (UTC 2008-12-04)
Аудио
Идентификатор : 1
Формат : MPEG Audio
Версия формата : Version 1
Профиль формата : Layer 3
Идентификатор кодека : 55
Идентификатор кодека/Подсказка : MP3
Продолжительность : 24 м.
Вид битрейта : Постоянный
Битрейт : 128 Кбит/сек
Каналы : 2 канала
Частота : 48,0 КГц
Метод сжатия : С потерями
Размер потока : 22,6 Мбайт (7%)
Выравнивание : Соединение по промежуткам
Продолжительность промежутка : 40 мс. (1,00 видеокадр)
Время предзагрузки промежутка : 504 мс.
Библиотека кодирования : LAME3.98r
Настройки программы : -m s -V 4 -q 2 -lowpass 17 -b 128

Скриншоты

[teatrix.ru].t23212.torrent 
Торрент: Зарегистрирован [ 2016-03-21 00:31 ] · D144AA3B9764621F365E9488A4BC8CF94EAF82C1

Скачать .torrent

Скачать

13 KB

Статус: проверено
Скачан: 0 раз
Размер: 327 MB
terms.php



Быстрый ответ

Имя:

      
Для отправки сообщений необходимо включить JavaScript
Показать сообщения:    

Текущее время: 07-Дек 23:16

Часовой пояс: UTC + 3


Вы можете начинать темы
Вы можете отвечать на сообщения
Вы не можете редактировать свои сообщения
Вы не можете удалять свои сообщения
Вы не можете голосовать в опросах
Вы не можете прикреплять файлы к сообщениям
Вы можете скачивать файлы