(Classical) Giovanni Maria Trabaci - Music for Organ and Harpsichord - Francesco Cera - 2014, FLAC (image+.cue) lossless


 

[Цитировать]

Giovanni Maria Trabaci - Music for Organ and Harpsichord - Francesco Cera
Жанр: Classical
Год издания диска: 2014
Издатель (лейбл): Brilliant Classics
Номер по каталогу: 94897
Дата записи: 2014
Аудиокодек: FLAC
Тип рипа: image+.cue
Битрейт аудио: lossless
Продолжительность: 1:59:28
Источник: собственный рип
Наличие сканов в содержимом раздачи: да
Треклист:
Giovanni Maria Trabaci (c.1575-1647)

CD1

from Ricercate, Canzone franzese, Capricci ..., libro primo (Naples, 1603)
[1] Canzona franzesa settima cromatica
[2] Canto fermo secondo del secondo tono
[3] Consonanze stravaganti
[4] Toccata seconda ottavo tono
[5] Canzona franzesa prima
[6] Toccata prima secondo tono
[7] Canzone sesta
[8] Ricercata nono tono con tre fughe
[9] Durezze et ligature
[10] Canzona franzesa terza
[11] Canto fermo quarto del primo tono
[12] Ricercata del decimo tono
from Ricercate e altri varij Capricci, libro secondo (Naples, 1615)
[13] Versetti dell’ottavo tono (Magnificat) *
[14] Ricercata del sesto tono cromatico
[15] Toccata quarta a cinque
[16] Ricercata del primo tono con tre fughe

CD2

from Ricercate, Canzone franzese, Capricci ..., libro primo (Naples, 1603)
[1] Canzona franzesa quarta
[2] Partite sopra Fedele
[3] Canzona franzesa seconda
[4] Canto fermo primo del primo tono
[5] Gagliarda quarta
[6] Gagliarda settima
[7] Gagliarda ottava
[8] Ricercata ottavo tono sopra Rugiero, con tre fughe
[9] Partite sopra Rugiero
[10] Ricercata del quarto tono con tre fughe, et inganni
from Ricercate e altri varij Capricci, libro secondo (Naples, 1615)
[11] Toccata seconda & ligature
[12] Gagliarda terza sopra la Mantoana
[13] Ancidetemi pur
[14] Gagliarda quarta alla Spagnola
[15] Toccata prima
[16] Gagliarda quinta cromatica detta la Trabacina
[17] Ricercata quarto tono con tre fughe e suori riversi
Исполнители:
Francesco Cera organ & harpsichord
* Polifonica Materana 'Pierluigi da Palestrina'
Carmine A. Catenazzo
conductor

Лог создания рипа: CD1

Exact Audio Copy V1.0 beta 3 from 29. August 2011
EAC extraction logfile from 29. November 2014, 20:44
Francesco Cera / Trabaci - Music for Organ and Harpsichord - CD1
Used drive : HL-DT-STDVDRAM GU70N Adapter: 0 ID: 0
Read mode : Secure
Utilize accurate stream : Yes
Defeat audio cache : Yes
Make use of C2 pointers : No
Read offset correction : 48
Overread into Lead-In and Lead-Out : No
Fill up missing offset samples with silence : Yes
Delete leading and trailing silent blocks : No
Null samples used in CRC calculations : Yes
Used interface : Native Win32 interface for Win NT & 2000
Used output format : User Defined Encoder
Selected bitrate : 128 kBit/s
Quality : High
Add ID3 tag : No
Command line compressor : C:\Program Files (x86)\Exact Audio Copy\Flac\flac.exe
Additional command line options : -V -8 -T "Date=%year%" -T "Genre=%genre%" %source%
TOC of the extracted CD
Track | Start | Length | Start sector | End sector
---------------------------------------------------------
1 | 0:00.00 | 3:45.59 | 0 | 16933
2 | 3:45.59 | 3:35.46 | 16934 | 33104
3 | 7:21.30 | 2:21.42 | 33105 | 43721
4 | 9:42.72 | 3:02.67 | 43722 | 57438
5 | 12:45.64 | 2:42.56 | 57439 | 69644
6 | 15:28.45 | 3:37.26 | 69645 | 85945
7 | 19:05.71 | 3:01.72 | 85946 | 99592
8 | 22:07.68 | 3:31.34 | 99593 | 115451
9 | 25:39.27 | 3:33.11 | 115452 | 131437
10 | 29:12.38 | 3:40.74 | 131438 | 148011
11 | 32:53.37 | 2:54.34 | 148012 | 161095
12 | 35:47.71 | 3:51.21 | 161096 | 178441
13 | 39:39.17 | 5:08.55 | 178442 | 201596
14 | 44:47.72 | 5:03.17 | 201597 | 224338
15 | 49:51.14 | 2:43.64 | 224339 | 236627
16 | 52:35.03 | 4:09.14 | 236628 | 255316
Range status and errors
Selected range
Filename C:\temp\Trabaci - Music for Organ and Harpsichord\CD1\Trabaci - Music for Organ and Harpsichord - CD1.wav
Peak level 90.3 %
Extraction speed 2.0 X
Range quality 100.0 %
Test CRC 570A2B33
Copy CRC 570A2B33
Copy OK
No errors occurred
AccurateRip summary
Track 1 not present in database
Track 2 not present in database
Track 3 not present in database
Track 4 not present in database
Track 5 not present in database
Track 6 not present in database
Track 7 not present in database
Track 8 not present in database
Track 9 not present in database
Track 10 not present in database
Track 11 not present in database
Track 12 not present in database
Track 13 not present in database
Track 14 not present in database
Track 15 not present in database
Track 16 not present in database
None of the tracks are present in the AccurateRip database
End of status report
==== Log checksum 144A6C3E982956C2DFCC1940376D69D9B5166D22F7D6F4B730B6C3AC7350ED45 ====

Лог создания рипа: CD2

Exact Audio Copy V1.0 beta 3 from 29. August 2011
EAC extraction logfile from 29. November 2014, 21:37
Francesco Cera / Trabaci - Music for Organ and Harpsichord - CD2
Used drive : HL-DT-STDVDRAM GU70N Adapter: 0 ID: 0
Read mode : Secure
Utilize accurate stream : Yes
Defeat audio cache : Yes
Make use of C2 pointers : No
Read offset correction : 48
Overread into Lead-In and Lead-Out : No
Fill up missing offset samples with silence : Yes
Delete leading and trailing silent blocks : No
Null samples used in CRC calculations : Yes
Used interface : Native Win32 interface for Win NT & 2000
Used output format : User Defined Encoder
Selected bitrate : 128 kBit/s
Quality : High
Add ID3 tag : No
Command line compressor : C:\Program Files (x86)\Exact Audio Copy\Flac\flac.exe
Additional command line options : -V -8 -T "Date=%year%" -T "Genre=%genre%" %source%
TOC of the extracted CD
Track | Start | Length | Start sector | End sector
---------------------------------------------------------
1 | 0:00.00 | 4:07.17 | 0 | 18541
2 | 4:07.17 | 8:32.00 | 18542 | 56941
3 | 12:39.17 | 2:38.55 | 56942 | 68846
4 | 15:17.72 | 3:10.71 | 68847 | 83167
5 | 18:28.68 | 1:32.10 | 83168 | 90077
6 | 20:01.03 | 2:26.20 | 90078 | 101047
7 | 22:27.23 | 1:16.34 | 101048 | 106781
8 | 23:43.57 | 3:37.53 | 106782 | 123109
9 | 27:21.35 | 10:07.43 | 123110 | 168677
10 | 37:29.03 | 3:26.57 | 168678 | 184184
11 | 40:55.60 | 2:36.51 | 184185 | 195935
12 | 43:32.36 | 1:56.56 | 195936 | 204691
13 | 45:29.17 | 5:47.53 | 204692 | 230769
14 | 51:16.70 | 1:54.03 | 230770 | 239322
15 | 53:10.73 | 2:34.11 | 239323 | 250883
16 | 55:45.09 | 2:22.73 | 250884 | 261606
17 | 58:08.07 | 4:36.52 | 261607 | 282358
Range status and errors
Selected range
Filename C:\temp\Trabaci - Music for Organ and Harpsichord\CD2\Trabaci - Music for Organ and Harpsichord - CD2.wav
Peak level 98.8 %
Extraction speed 5.3 X
Range quality 100.0 %
Test CRC 68D6E63E
Copy CRC 68D6E63E
Copy OK
No errors occurred
AccurateRip summary
Track 1 not present in database
Track 2 not present in database
Track 3 not present in database
Track 4 not present in database
Track 5 not present in database
Track 6 not present in database
Track 7 not present in database
Track 8 not present in database
Track 9 not present in database
Track 10 not present in database
Track 11 not present in database
Track 12 not present in database
Track 13 not present in database
Track 14 not present in database
Track 15 not present in database
Track 16 not present in database
Track 17 not present in database
None of the tracks are present in the AccurateRip database
End of status report
==== Log checksum F9C9A84B9194FE9C020452FAF021147268B23AC28225A9316FF3DB3A5F27E1BD ====



Показать сообщения:    

Текущее время: 10-Дек 08:02

Часовой пояс: UTC + 3


Вы не можете начинать темы
Вы не можете отвечать на сообщения
Вы не можете редактировать свои сообщения
Вы не можете удалять свои сообщения
Вы не можете голосовать в опросах
Вы не можете прикреплять файлы к сообщениям
Вы не можете скачивать файлы