Следы / Stopy (Яромил Иреш / Jaromil Jires) [1960, Чехословакия, короткометражка, драма, BDRip] Sub (Rus, Eng) + Original (Cze)


Статистика раздачи [Обновить пиров]
Размер:  228 MB   |    Зарегистрирован:  8 месяцев 17 дней   |    Скачан:  0 раз

Полного источника не было: Никогда

 
   
 
 
 

[Цитировать]

Следы / Stopy
Страна: Чехословакия
Жанр: короткометражка, драма
Годы выпуска: 1960
Продолжительность: 00:12:18
Перевод: Субтитры
Субтитры: русские, английские
Оригинальная аудиодорожка: чешский
Режиссер: Яромил Иреш / Jaromil Jireš
В ролях: Вацлав Логниский, Владимир Главаты, Светла Амортова, Вера Тиханкова, Франтишек Коваржик, Ольдржих Лукеш, Ладислав Казда, Макс Шиндлер, Ян Одл
Описание: По рассказу Яна Дрда «Деревенская история».
Семья в деревне Борковицы укрывает у себя сбежавшего из фашистского застенка русского солдата...

Доп. информация:
Качество видео: BDRip | Core_soul/BDRemux 1080p
Формат видео: AVI
Видео: 720x528 (1.36:1), 23.976 fps, XviD build 73 ~2388 kbps avg, 0.26 bit/pixel
Аудио: 48 kHz, AC3 Dolby Digital, 1/0 (C) ch, ~192 kbps
Формат субтитров: softsub (SRT)

MediaInfo

General
Complete name : C:\Stopy.1960.BDRip.Cze_by_LBS.avi
Format : AVI
Format/Info : Audio Video Interleave
File size : 228 MiB
Duration : 12mn 18s
Overall bit rate : 2 590 Kbps
Director : Last Boy Scout
Writing application : VirtualDubMod 1.5.10.3 | www.virtualdub-fr.org || (build 2550/release)
Copyright : rutracker.org 06.03.2016
Comment : BDRip Original (Cze)
Video
ID : 0
Format : MPEG-4 Visual
Format profile : Advanced Simple@L5
Format settings, BVOP : 1
Format settings, QPel : No
Format settings, GMC : No warppoints
Format settings, Matrix : Custom
Codec ID : XVID
Codec ID/Hint : XviD
Duration : 12mn 18s
Bit rate : 2 388 Kbps
Width : 720 pixels
Height : 528 pixels
Display aspect ratio : 4:3
Frame rate : 23.976 fps
Color space : YUV
Chroma subsampling : 4:2:0
Bit depth : 8 bits
Scan type : Progressive
Compression mode : Lossy
Bits/(Pixel*Frame) : 0.262
Stream size : 210 MiB (92%)
Writing library : XviD 73
Audio
ID : 1
Format : AC-3
Format/Info : Audio Coding 3
Mode extension : CM (complete main)
Format settings, Endianness : Big
Codec ID : 2000
Duration : 12mn 18s
Bit rate mode : Constant
Bit rate : 192 Kbps
Channel(s) : 1 channel
Channel positions : Front: C
Sampling rate : 48.0 KHz
Bit depth : 16 bits
Compression mode : Lossy
Stream size : 16.9 MiB (7%)
Alignment : Split accross interleaves
Interleave, duration : 42 ms (1.00 video frame)
Interleave, preload duration : 500 ms

Скриншоты

Пример субтитров

6
00:01:35,679 --> 00:01:37,222
Отец, готово.
7
00:01:43,645 --> 00:01:47,482
Каждый вечер одно и то же.
Добром это не кончится.
8
00:01:47,983 --> 00:01:52,154
Не волнуйся, я осторожен. Никто не узнает.
9
00:01:55,866 --> 00:01:59,536
Все в героев никак не наиграетесь.
10
00:02:39,493 --> 00:02:41,286
Кто там?
11
00:02:51,004 --> 00:02:52,631
Тихо.
12
00:02:59,513 --> 00:03:01,306
Господи Иисусе!
13
00:03:08,021 --> 00:03:09,815
Подождите.
14
00:03:11,149 --> 00:03:12,901
Куда же вы такой пойдете.
15
00:03:44,141 --> 00:03:47,060
Поступило извещение...
16
00:03:47,727 --> 00:03:52,566
в нашем районе скрывается убежавший русский пленный.
17
00:03:52,691 --> 00:03:54,985
Приметы: 32 года,
18
00:03:55,110 --> 00:04:00,115
рост 170 см, светлые волосы.
19
00:04:00,365 --> 00:04:05,078
Имеет шрам на правом запястье.
20
00:04:06,079 --> 00:04:08,915
Во время побега был ранен.
21
00:04:09,249 --> 00:04:11,543
Всех, кому что-либо известно о его местонахождении,
22
00:04:11,668 --> 00:04:15,297
незамедлительно сообщить в жандармское отделение.
23
00:04:16,006 --> 00:04:21,261
Сокрытие беглеца или оказание ему любой помощи
24
00:04:21,428 --> 00:04:24,556
будет караться смертью.
25
00:04:29,519 --> 00:04:31,605
Они его скоро поймают.
-
[teatrix.ru].t23215.torrent 
Торрент: Зарегистрирован [ 2016-03-21 00:31 ] · 3EB047D91D7B373DE86F406092DBD9EE3E2129E4

Скачать .torrent

Скачать

19 KB

Статус: проверено
Скачан: 0 раз
Размер: 228 MB
terms.php



Быстрый ответ

Имя:

      
Для отправки сообщений необходимо включить JavaScript
Показать сообщения:    

Текущее время: 07-Дек 13:30

Часовой пояс: UTC + 3


Вы можете начинать темы
Вы можете отвечать на сообщения
Вы не можете редактировать свои сообщения
Вы не можете удалять свои сообщения
Вы не можете голосовать в опросах
Вы не можете прикреплять файлы к сообщениям
Вы можете скачивать файлы