Правая рука / Mano destra (Клео Юбельман / Cleo Uebelmann / Cleo Übelmann) [1986, Швейцария, документальный, экспериментальный, VHSRip]


Статистика раздачи [Обновить пиров]
Размер:  873 MB   |    Зарегистрирован:  8 месяцев 19 дней   |    Скачан:  0 раз

Полного источника не было: Никогда

 
   
 
 
 

[Цитировать]

Правая рука / Mano destra
Страна: Швейцария
Жанр: документальный, экспериментальный
Год выпуска: 1986
Продолжительность: 00:49:04
Перевод: Не требуется
Cубтитры: нет
Оригинальная аудиодорожка: музыка, шумы
Режиссер: Клео Юбельман / Cleo Uebelmann / Cleo Übelmann
В ролях: Клео Юбельман/Cleo Uebelmann
Описание: Крис Маркер мечтал дать камеры пингвинам, чтобы те сняли свою жизнь по-своему, по-пингвиньи (если в кадр попадут незваные гости в странных одеяниях – тем лучше). Участницы группы Dominas Cleo Uebelmann Group взяли в руки камеру, чтобы запечатлеть свою жизнь и игры, относящиеся к обширной группе ритуалов повиновения. Принцип OBEY разрабатывается строгими дамами в творческом ключе, который призывает зрителя не только к пониманию показанной ему системы, но, возможно, и прочитыванию своих личных смыслов, не относящихся к области связывания и подчинения, но однозначно определяющих взаимоотношения человека и социума (например, радость стоять связанным на коленях в легко узнаваемой позе). Чёрно-белое зернистое изображение, запечатлевшее доминатрикс в работе, цоканье высоких каблуков, шум толпы и минималистский пост-панк на аудиодорожке – этого достаточно, чтобы увидеть фильм хоть как руководство по вязанию морских узлов, хоть как перформанс, приоткрывающий природу власти, сервильности и повиновения. Obey, enjoy!
Сэмпл: http://multi-up.com/1092019
Качество видео: VHSRip
Формат видео: AVI
Видео: xvid at 2349 kbps, 0.31 bit/pixel, 640x480 (1.33:1) at 25 fps
Аудио: MPEG Layer 3 at 128.00 kbps, 2 ch, 44.100 kHz

MediaInfo

Формат : AVI
Формат/Информация : Audio Video Interleave
Размер файла : 873 Мбайт
Продолжительность : 49 м.
Общий поток : 2487 Кбит/сек
Видео
Идентификатор : 0
Формат : xvid
Идентификатор кодека : xvid
Продолжительность : 49 м.
Битрейт : 2350 Кбит/сек
Ширина : 640 пикс.
Высота : 480 пикс.
Соотношение сторон : 4:3
Частота кадров : 25,000 кадр/сек
Бит/(Пиксели*Кадры) : 0.306
Размер потока : 825 Мбайт (94%)
Аудио
Идентификатор : 1
Формат : MPEG Audio
Версия формата : Version 1
Профиль формата : Layer 3
Идентификатор кодека : 55
Идентификатор кодека/Подсказка : MP3
Продолжительность : 49 м.
Вид битрейта : Постоянный
Битрейт : 128 Кбит/сек
Канал(ы) : 2 канала(ов)
Частота : 44,1 КГц
Метод сжатия : С потерями
Размер потока : 44,9 Мбайт (5%)
Выравнивание : Разделение по промежуткам
Продолжительность промежутка : 40 мс. (1,00 видеокадр)

Скриншот c названием фильма

Скриншоты

[teatrix.ru].t23216.torrent 
Торрент: Зарегистрирован [ 2016-03-21 00:31 ] · 6E648C09AEEAAFBEB2A2786416A43B0AB00FD96B

Скачать .torrent

Скачать

18 KB

Статус: проверено
Скачан: 0 раз
Размер: 873 MB
terms.php



Быстрый ответ

Имя:

      
Для отправки сообщений необходимо включить JavaScript
Показать сообщения:    

Текущее время: 09-Дек 01:07

Часовой пояс: UTC + 3


Вы можете начинать темы
Вы можете отвечать на сообщения
Вы не можете редактировать свои сообщения
Вы не можете удалять свои сообщения
Вы не можете голосовать в опросах
Вы не можете прикреплять файлы к сообщениям
Вы можете скачивать файлы