(Classical) Johann Sebastian Bach · The Keyboard Concertos (Angela Hewitt, Australian Chamber Orchestra, Richard Tognetti) · 2005, FLAC (tracks+.cue) lossless


Статистика раздачи [Обновить пиров]
Размер:  596 MB   |    Зарегистрирован:  8 месяцев 18 дней   |    Скачан:  0 раз

Полного источника не было: Никогда

 
   
 
 
 

[Цитировать]

Johann Sebastian Bach
The Keyboard Concertos

·
Жанр: classical · Страна-производитель диска: UK · Год издания дисков: 2005
Издатель: hyperion · Номера по каталогу: CDA67307, CDA67308 · Дата записи: февраль 2005
Аудиокодек: FLAC · Тип рипа: tracks+.cue · Битрейт аудио: lossless
Продолжительность: 02:32:30 · Источник: what.cd · Буклеты в содержимом раздачи есть
Исполнители: Angela Hewitt (piano), Australian Chamber Orchestra, Richard Tognetti (conductor);
* Richard Tognetti (violin), Alison Mitchell (flute); ** Alison Mitchell (flute), Emma Sholl (flute).

The Keyboard Concertos – 1

Keyboard Concerto No. 1 in D minor, BWV1052
01. Allegro (7:38)
02. Adagio (7:18)
03. Allegro (7:51)
Keyboard Concerto No. 7 in G Minor, BWV 1058
04. [first movement] (3:41)
05. Andante (6:34)
06. Allegro assai (3:50)
Brandenburg Concerto No. 5 in D major, BWV1050 *
07. Allegro (9:42)
08. Affettuoso (5:03)
09. Allegro (5:14)
Triple Concerto in A minor, BWV1044 *
10. Allegro (8:35)
11. Adagio ma non tanto e dolce (4:36)
12. Tempo di alla breve (6:58)
Продолжительность: 01:17:01

Лог создания рипа

Exact Audio Copy V0.99 prebeta 5 from 4. May 2009
EAC extraction logfile from 21. June 2011, 0:12
Johann Sebastian Bach / The Keyboard Concertos - 1 (Angela Hewitt, Australian Chamber Orchestra)
Used drive : TSSTcorpDVD+-RW TS-H553A Adapter: 0 ID: 1
Read mode : Secure
Utilize accurate stream : Yes
Defeat audio cache : Yes
Make use of C2 pointers : No
Read offset correction : 6
Overread into Lead-In and Lead-Out : No
Fill up missing offset samples with silence : Yes
Delete leading and trailing silent blocks : No
Null samples used in CRC calculations : Yes
Used interface : Native Win32 interface for Win NT & 2000
Gap handling : Appended to previous track
Used output format : User Defined Encoder
Selected bitrate : 320 kBit/s
Quality : High
Add ID3 tag : No
Command line compressor : C:\Program Files\Exact Audio Copy\Flac\flac.exe
Additional command line options : -V -8 -T "artist=%a" -T "title=%t" -T "album=%g" -T "date=%y" -T "tracknumber=%n" -T "genre=%m" %s
TOC of the extracted CD
Track | Start | Length | Start sector | End sector
---------------------------------------------------------
1 | 0:00.00 | 7:37.69 | 0 | 34343
2 | 7:37.69 | 7:17.53 | 34344 | 67171
3 | 14:55.47 | 7:50.64 | 67172 | 102485
4 | 22:46.36 | 3:41.20 | 102486 | 119080
5 | 26:27.56 | 6:34.28 | 119081 | 148658
6 | 33:02.09 | 3:50.17 | 148659 | 165925
7 | 36:52.26 | 9:41.49 | 165926 | 209549
8 | 46:34.00 | 5:02.51 | 209550 | 232250
9 | 51:36.51 | 5:14.36 | 232251 | 255836
10 | 56:51.12 | 8:35.19 | 255837 | 294480
11 | 65:26.31 | 4:36.10 | 294481 | 315190
12 | 70:02.41 | 6:58.03 | 315191 | 346543
Track 1
Filename D:\Daniel\EAC Perfect Rips\Johann Sebastian Bach - 2006 - The Keyboard Concertos - 1 (Angela Hewitt, Australian Chamber Orchestra)\01 - Keyboard Concerto #1 In D Minor, BWV 1052 - 1. Allegro.wav
Pre-gap length 0:00:02.00
Peak level 93.2 %
Track quality 99.9 %
Test CRC 6DFB395E
Copy CRC 6DFB395E
Accurately ripped (confidence 20) [DF2C9D63]
Copy OK
Track 2
Filename D:\Daniel\EAC Perfect Rips\Johann Sebastian Bach - 2006 - The Keyboard Concertos - 1 (Angela Hewitt, Australian Chamber Orchestra)\02 - Keyboard Concerto #1 In D Minor, BWV 1052 - 2. Adagio.wav
Peak level 59.8 %
Track quality 100.0 %
Test CRC 042D3C74
Copy CRC 042D3C74
Accurately ripped (confidence 20) [E867DCC5]
Copy OK
Track 3
Filename D:\Daniel\EAC Perfect Rips\Johann Sebastian Bach - 2006 - The Keyboard Concertos - 1 (Angela Hewitt, Australian Chamber Orchestra)\03 - Keyboard Concerto #1 In D Minor, BWV 1052 - 3. Allegro.wav
Peak level 70.1 %
Track quality 99.9 %
Test CRC 29276857
Copy CRC 29276857
Accurately ripped (confidence 20) [B197E6F8]
Copy OK
Track 4
Filename D:\Daniel\EAC Perfect Rips\Johann Sebastian Bach - 2006 - The Keyboard Concertos - 1 (Angela Hewitt, Australian Chamber Orchestra)\04 - Keyboard Concerto #7 In G Minor, BWV 1058 - 1. No Tempo Marking.wav
Peak level 71.6 %
Track quality 100.0 %
Test CRC 3EDC778F
Copy CRC 3EDC778F
Accurately ripped (confidence 20) [4B25DC82]
Copy OK
Track 5
Filename D:\Daniel\EAC Perfect Rips\Johann Sebastian Bach - 2006 - The Keyboard Concertos - 1 (Angela Hewitt, Australian Chamber Orchestra)\05 - Keyboard Concerto #7 In G Minor, BWV 1058 - 2. Andante.wav
Peak level 67.9 %
Track quality 100.0 %
Test CRC 06C1BFE5
Copy CRC 06C1BFE5
Accurately ripped (confidence 20) [7ADC0612]
Copy OK
Track 6
Filename D:\Daniel\EAC Perfect Rips\Johann Sebastian Bach - 2006 - The Keyboard Concertos - 1 (Angela Hewitt, Australian Chamber Orchestra)\06 - Keyboard Concerto #7 In G Minor, BWV 1058 - 3. Allegro Assai.wav
Peak level 63.7 %
Track quality 100.0 %
Test CRC B602A62E
Copy CRC B602A62E
Accurately ripped (confidence 20) [C4707629]
Copy OK
Track 7
Filename D:\Daniel\EAC Perfect Rips\Johann Sebastian Bach - 2006 - The Keyboard Concertos - 1 (Angela Hewitt, Australian Chamber Orchestra)\07 - Brandenburg Concerto #5 In D, BWV 1050 - 1. Allegro.wav
Peak level 73.6 %
Track quality 100.0 %
Test CRC F38B2993
Copy CRC F38B2993
Accurately ripped (confidence 20) [E650BCA8]
Copy OK
Track 8
Filename D:\Daniel\EAC Perfect Rips\Johann Sebastian Bach - 2006 - The Keyboard Concertos - 1 (Angela Hewitt, Australian Chamber Orchestra)\08 - Brandenburg Concerto #5 In D, BWV 1050 - 2. Affettuoso.wav
Peak level 35.4 %
Track quality 100.0 %
Test CRC 5DA55B0A
Copy CRC 5DA55B0A
Accurately ripped (confidence 20) [0CA8AF08]
Copy OK
Track 9
Filename D:\Daniel\EAC Perfect Rips\Johann Sebastian Bach - 2006 - The Keyboard Concertos - 1 (Angela Hewitt, Australian Chamber Orchestra)\09 - Brandenburg Concerto #5 In D, BWV 1050 - 3. Allegro.wav
Peak level 78.6 %
Track quality 100.0 %
Test CRC BDA70BF8
Copy CRC BDA70BF8
Accurately ripped (confidence 19) [B062BAAA]
Copy OK
Track 10
Filename D:\Daniel\EAC Perfect Rips\Johann Sebastian Bach - 2006 - The Keyboard Concertos - 1 (Angela Hewitt, Australian Chamber Orchestra)\10 - Triple Concerto In A Minor, BWV 1044 - 1. Allegro.wav
Peak level 63.4 %
Track quality 100.0 %
Test CRC CF953198
Copy CRC CF953198
Accurately ripped (confidence 20) [0B57B8BC]
Copy OK
Track 11
Filename D:\Daniel\EAC Perfect Rips\Johann Sebastian Bach - 2006 - The Keyboard Concertos - 1 (Angela Hewitt, Australian Chamber Orchestra)\11 - Triple Concerto In A Minor, BWV 1044 - 2. Adagio Ma Non Tanto E Dolce.wav
Peak level 35.4 %
Track quality 100.0 %
Test CRC 9789CE8C
Copy CRC 9789CE8C
Accurately ripped (confidence 20) [AD45EF02]
Copy OK
Track 12
Filename D:\Daniel\EAC Perfect Rips\Johann Sebastian Bach - 2006 - The Keyboard Concertos - 1 (Angela Hewitt, Australian Chamber Orchestra)\12 - Triple Concerto In A Minor, BWV 1044 - 3. Tempo Di Alla Breve.wav
Peak level 99.3 %
Track quality 100.0 %
Test CRC 21D2BE76
Copy CRC 21D2BE76
Accurately ripped (confidence 19) [C5A04767]
Copy OK
All tracks accurately ripped
No errors occurred
End of status report

Содержание индексной карты (.CUE)

REM DATE 2005
REM DISCID CB120C0C
REM COMMENT "ExactAudioCopy v0.99pb5"
PERFORMER "Angela Hewitt · Australian Chamber Orchestra"
TITLE "The Keyboard Concertos"
FILE "01. Keyboard Concerto No. 1 in D minor, BWV1052 · Allegro.wav" WAVE
TRACK 01 AUDIO
TITLE "Keyboard Concerto No. 1 in D minor, BWV1052 · Allegro"
PERFORMER "Angela Hewitt · Australian Chamber Orchestra"
FLAGS DCP
INDEX 01 00:00:00
FILE "02. Keyboard Concerto No. 1 in D minor, BWV1052 · Adagio.wav" WAVE
TRACK 02 AUDIO
TITLE "Keyboard Concerto No. 1 in D minor, BWV1052 · Adagio"
PERFORMER "Angela Hewitt · Australian Chamber Orchestra"
FLAGS DCP
INDEX 01 00:00:00
FILE "03. Keyboard Concerto No. 1 in D minor, BWV1052 · Allegro.wav" WAVE
TRACK 03 AUDIO
TITLE "Keyboard Concerto No. 1 in D minor, BWV1052 · Allegro"
PERFORMER "Angela Hewitt · Australian Chamber Orchestra"
FLAGS DCP
INDEX 01 00:00:00
FILE "04. Keyboard Concerto No. 7 in G Minor, BWV 1058 · [first movement].wav" WAVE
TRACK 04 AUDIO
TITLE "Keyboard Concerto No. 7 in G Minor, BWV 1058 · [first movement]"
PERFORMER "Angela Hewitt · Australian Chamber Orchestra"
FLAGS DCP
INDEX 01 00:00:00
FILE "05. Keyboard Concerto No. 7 in G Minor, BWV 1058 · Andante.wav" WAVE
TRACK 05 AUDIO
TITLE "Keyboard Concerto No. 7 in G Minor, BWV 1058 · Andante"
PERFORMER "Angela Hewitt · Australian Chamber Orchestra"
FLAGS DCP
INDEX 01 00:00:00
FILE "06. Keyboard Concerto No. 7 in G Minor, BWV 1058 · Allegro assai.wav" WAVE
TRACK 06 AUDIO
TITLE "Keyboard Concerto No. 7 in G Minor, BWV 1058 · Allegro assai"
PERFORMER "Angela Hewitt · Australian Chamber Orchestra"
FLAGS DCP
INDEX 01 00:00:00
FILE "07. Brandenburg Concerto No. 5 in D major, BWV1050 · Allegro.wav" WAVE
TRACK 07 AUDIO
TITLE "Brandenburg Concerto No. 5 in D major, BWV1050 · Allegro"
PERFORMER "Angela Hewitt · Australian Chamber Orchestra"
FLAGS DCP
INDEX 01 00:00:00
FILE "08. Brandenburg Concerto No. 5 in D major, BWV1050 · Affettuoso.wav" WAVE
TRACK 08 AUDIO
TITLE "Brandenburg Concerto No. 5 in D major, BWV1050 · Affettuoso"
PERFORMER "Angela Hewitt · Australian Chamber Orchestra"
FLAGS DCP
INDEX 01 00:00:00
FILE "09. Brandenburg Concerto No. 5 in D major, BWV1050 · Allegro.wav" WAVE
TRACK 09 AUDIO
TITLE "Brandenburg Concerto No. 5 in D major, BWV1050 · Allegro"
PERFORMER "Angela Hewitt · Australian Chamber Orchestra"
FLAGS DCP
INDEX 01 00:00:00
FILE "10. Triple Concerto in A minor, BWV1044 · Allegro.wav" WAVE
TRACK 10 AUDIO
TITLE "Triple Concerto in A minor, BWV1044 · Allegro"
PERFORMER "Angela Hewitt · Australian Chamber Orchestra"
FLAGS DCP
INDEX 01 00:00:00
FILE "11. Triple Concerto in A minor, BWV1044 · Adagio ma non tanto e dolce.wav" WAVE
TRACK 11 AUDIO
TITLE "Triple Concerto in A minor, BWV1044 · Adagio ma non tanto e dolce"
PERFORMER "Angela Hewitt · Australian Chamber Orchestra"
FLAGS DCP
INDEX 01 00:00:00
FILE "12. Triple Concerto in A minor, BWV1044 · Tempo di alla breve.wav" WAVE
TRACK 12 AUDIO
TITLE "Triple Concerto in A minor, BWV1044 · Tempo di alla breve"
PERFORMER "Angela Hewitt · Australian Chamber Orchestra"
FLAGS DCP
INDEX 01 00:00:00

The Keyboard Concertos – 2

Keyboard Concerto No. 4 in A Major, BWV1055
01. Allegro (4:07)
02. Larghetto (4:56)
03. Allegro ma non tanto (4:39)
Keyboard Concerto No. 3 in D Major, BWV1054
04. [first movement] (7:30)
05. Adagio e piano sempre (6:06)
06. Allegro (2:38)
Keyboard Concerto No. 2 in E Major, BWV1053
07. [first movement] (8:03)
08. Siciliano (4:43)
09. Allegro (6:29)
Keyboard Concerto No. 5 in F Minor, BWV 1056
10. Allegro (3:29)
11. Adagio (2:58)
12. Presto (3:20)
Keyboard Concerto No. 6 in F Major, BWV1057 **
13. [first movement] (7:22)
14. Andante (4:10)
15. Allegro assai (5:02)
Продолжительность: 01:15:03

Лог создания рипа

Exact Audio Copy V1.0 beta 4 from 7. December 2014
EAC extraction logfile from 22. April 2015, 15:09
Bach, Johann Sebastian / The Keyboard Concertos - 2
Used drive : hp DVDRAM GU90N Adapter: 1 ID: 0
Read mode : Secure
Utilize accurate stream : Yes
Defeat audio cache : Yes
Make use of C2 pointers : No
Read offset correction : 102
Overread into Lead-In and Lead-Out : No
Fill up missing offset samples with silence : Yes
Delete leading and trailing silent blocks : No
Null samples used in CRC calculations : Yes
Used interface : Native Win32 interface for Win NT & 2000
Gap handling : Appended to previous track
Used output format : User Defined Encoder
Selected bitrate : 1024 kBit/s
Quality : High
Add ID3 tag : No
Command line compressor : C:\Program Files (x86)\Exact Audio Copy\Flac\flac.exe
Additional command line options : -8 -V -T "ARTIST=%artist%" -T "TITLE=%title%" -T "ALBUM=%albumtitle%" -T "DATE=%year%" -T "TRACKNUMBER=%tracknr%" -T "GENRE=%genre%" -T "PERFORMER=%albuminterpret%" -T "COMPOSER=%composer%" %haslyrics%--tag-from-file=LYRICS="%lyricsfile%"%haslyrics% -T "ALBUMARTIST=%albumartist%" -T "DISCNUMBER=%cdnumber%" -T "TOTALDISCS=%totalcds%" -T "TOTALTRACKS=%numtracks%" -T "COMMENT=%comment%" %source% -o %dest%
TOC of the extracted CD
Track | Start | Length | Start sector | End sector
---------------------------------------------------------
1 | 0:00.00 | 4:06.39 | 0 | 18488
2 | 4:06.39 | 4:55.64 | 18489 | 40677
3 | 9:02.28 | 4:39.16 | 40678 | 61618
4 | 13:41.44 | 7:29.45 | 61619 | 95338
5 | 21:11.14 | 6:05.69 | 95339 | 122782
6 | 27:17.08 | 2:37.51 | 122783 | 134608
7 | 29:54.59 | 8:02.73 | 134609 | 170831
8 | 37:57.57 | 4:43.23 | 170832 | 192079
9 | 42:41.05 | 6:28.66 | 192080 | 221245
10 | 49:09.71 | 3:28.43 | 221246 | 236888
11 | 52:38.39 | 2:57.55 | 236889 | 250218
12 | 55:36.19 | 3:19.59 | 250219 | 265202
13 | 58:56.03 | 7:21.45 | 265203 | 298322
14 | 66:17.48 | 4:09.74 | 298323 | 317071
15 | 70:27.47 | 5:02.18 | 317072 | 339739
Track 1
Filename C:\Users\Mariko\Music\01 - Concerto No. 4 in A Major, BWV1055- I. Allegro.wav
Pre-gap length 0:00:02.00
Peak level 48.3 %
Extraction speed 2.4 X
Track quality 100.0 %
Test CRC 03575FFF
Copy CRC 03575FFF
Accurately ripped (confidence 17) [EE5EEF68] (AR v2)
Copy OK
Track 2
Filename C:\Users\Mariko\Music\02 - Concerto No. 4 in A Major, BWV1055- II. Larghetto.wav
Peak level 39.4 %
Extraction speed 2.8 X
Track quality 100.0 %
Test CRC 862D9A2C
Copy CRC 862D9A2C
Accurately ripped (confidence 16) [8F8ABC7E] (AR v2)
Copy OK
Track 3
Filename C:\Users\Mariko\Music\03 - Concerto No. 4 in A Major, BWV1055- III. Allegro ma non tanto.wav
Peak level 60.3 %
Extraction speed 2.5 X
Track quality 99.9 %
Test CRC F8BB093F
Copy CRC F8BB093F
Accurately ripped (confidence 17) [6BEAB24A] (AR v2)
Copy OK
Track 4
Filename C:\Users\Mariko\Music\04 - Concerto No. 3 in D Major, BWV1054- I. [ first movement ].wav
Peak level 70.3 %
Extraction speed 3.5 X
Track quality 100.0 %
Test CRC 5833D99D
Copy CRC 5833D99D
Accurately ripped (confidence 17) [087C7079] (AR v2)
Copy OK
Track 5
Filename C:\Users\Mariko\Music\05 - Concerto No. 3 in D Major, BWV1054- II. Adagio e piano sempre.wav
Peak level 55.1 %
Extraction speed 3.7 X
Track quality 100.0 %
Test CRC 4A2FD54B
Copy CRC 4A2FD54B
Accurately ripped (confidence 16) [694459AD] (AR v2)
Copy OK
Track 6
Filename C:\Users\Mariko\Music\06 - Concerto No. 3 in D Major, BWV1054- III. Allegro.wav
Peak level 52.6 %
Extraction speed 2.5 X
Track quality 99.9 %
Test CRC 5CB991A5
Copy CRC 5CB991A5
Accurately ripped (confidence 17) [7E00E69B] (AR v2)
Copy OK
Track 7
Filename C:\Users\Mariko\Music\07 - Concerto No. 2 in E Major, BWV1053- I. [ first movement ].wav
Peak level 60.2 %
Extraction speed 4.1 X
Track quality 100.0 %
Test CRC 659EE38E
Copy CRC 659EE38E
Accurately ripped (confidence 17) [1D4B3B14] (AR v2)
Copy OK
Track 8
Filename C:\Users\Mariko\Music\08 - Concerto No. 2 in E Major, BWV1053- II. Siciliano.wav
Peak level 37.9 %
Extraction speed 4.1 X
Track quality 100.0 %
Test CRC 493EF996
Copy CRC 493EF996
Accurately ripped (confidence 17) [7B2F8423] (AR v2)
Copy OK
Track 9
Filename C:\Users\Mariko\Music\09 - Concerto No. 2 in E Major, BWV1053- III. Allegro.wav
Peak level 61.9 %
Extraction speed 4.5 X
Track quality 100.0 %
Test CRC DB15ED66
Copy CRC DB15ED66
Accurately ripped (confidence 17) [93017F08] (AR v2)
Copy OK
Track 10
Filename C:\Users\Mariko\Music\10 - Concerto No. 5 in F Minor, BWV 1056- I. Allegro.wav
Peak level 64.8 %
Extraction speed 4.3 X
Track quality 100.0 %
Test CRC E5616E22
Copy CRC E5616E22
Accurately ripped (confidence 17) [4FE7F759] (AR v2)
Copy OK
Track 11
Filename C:\Users\Mariko\Music\11 - Concerto No. 5 in F Minor, BWV 1056- II. Adagio.wav
Peak level 28.1 %
Extraction speed 4.3 X
Track quality 100.0 %
Test CRC 6F824DA2
Copy CRC 6F824DA2
Accurately ripped (confidence 17) [591F0F32] (AR v2)
Copy OK
Track 12
Filename C:\Users\Mariko\Music\12 - Concerto No. 5 in F Minor, BWV 1056- III. Presto.wav
Peak level 71.5 %
Extraction speed 4.3 X
Track quality 100.0 %
Test CRC D12B6B40
Copy CRC D12B6B40
Accurately ripped (confidence 17) [6C7CBAD9] (AR v2)
Copy OK
Track 13
Filename C:\Users\Mariko\Music\13 - Concerto No. 6 in F Major, BWV1057- I. [ first movement ].wav
Peak level 59.3 %
Extraction speed 5.0 X
Track quality 100.0 %
Test CRC 607A045B
Copy CRC 607A045B
Accurately ripped (confidence 17) [C012FA2D] (AR v2)
Copy OK
Track 14
Filename C:\Users\Mariko\Music\14 - Concerto No. 6 in F Major, BWV1057- II. Andante.wav
Peak level 65.6 %
Extraction speed 3.3 X
Track quality 99.9 %
Test CRC 21FB6069
Copy CRC 21FB6069
Accurately ripped (confidence 17) [B45AD7CB] (AR v2)
Copy OK
Track 15
Filename C:\Users\Mariko\Music\15 - Concerto No. 6 in F Major, BWV1057- III. Allegro assai.wav
Peak level 86.2 %
Extraction speed 2.7 X
Track quality 100.0 %
Test CRC DA2B31CF
Copy CRC DA2B31CF
Accurately ripped (confidence 17) [4CFB108B] (AR v2)
Copy OK
All tracks accurately ripped
No errors occurred
End of status report
---- CUETools DB Plugin V2.1.4
[CTDB TOCID: JwNJnNbfiYDpvApuOb5ggB2EZxI-] found
Submit result: JwNJnNbfiYDpvApuOb5ggB2EZxI- has been confirmed
Track | CTDB Status
1 | (5/5) Accurately ripped
2 | (5/5) Accurately ripped
3 | (5/5) Accurately ripped
4 | (5/5) Accurately ripped
5 | (5/5) Accurately ripped
6 | (5/5) Accurately ripped
7 | (4/5) Accurately ripped
8 | (5/5) Accurately ripped
9 | (5/5) Accurately ripped
10 | (5/5) Accurately ripped
11 | (5/5) Accurately ripped
12 | (5/5) Accurately ripped
13 | (5/5) Accurately ripped
14 | (5/5) Accurately ripped
15 | (5/5) Accurately ripped
==== Log checksum 1C935C294FB584F0ED9ED0D5FFF7529AE1F892C8071B3B8DD3C88733D7F2C2BB ====

Содержание индексной карты (.CUE)

REM DATE 2005
REM DISCID F111B10F
REM COMMENT "ExactAudioCopy v1.0b4"
PERFORMER "Angela Hewitt · Australian Chamber Orchestra"
TITLE "The Keyboard Concertos"
FILE "01. Keyboard Concerto No. 4 in A Major, BWV1055 · Allegro.wav" WAVE
TRACK 01 AUDIO
TITLE "Keyboard Concerto No. 4 in A Major, BWV1055 · Allegro"
PERFORMER "Angela Hewitt · Australian Chamber Orchestra"
ISRC GBAJY0530801
FLAGS DCP
INDEX 01 00:00:00
FILE "02. Keyboard Concerto No. 4 in A Major, BWV1055 · Larghetto.wav" WAVE
TRACK 02 AUDIO
TITLE "Keyboard Concerto No. 4 in A Major, BWV1055 · Larghetto"
PERFORMER "Angela Hewitt · Australian Chamber Orchestra"
ISRC GBAJY0530802
FLAGS DCP
INDEX 01 00:00:00
FILE "03. Keyboard Concerto No. 4 in A Major, BWV1055 · Allegro ma non tanto.wav" WAVE
TRACK 03 AUDIO
TITLE "Keyboard Concerto No. 4 in A Major, BWV1055 · Allegro ma non tanto"
PERFORMER "Angela Hewitt · Australian Chamber Orchestra"
ISRC GBAJY0530802
FLAGS DCP
INDEX 01 00:00:00
FILE "04. Keyboard Concerto No. 3 in D Major, BWV1054 · [first movement].wav" WAVE
TRACK 04 AUDIO
TITLE "Keyboard Concerto No. 3 in D Major, BWV1054 · [first movement]"
PERFORMER "Angela Hewitt · Australian Chamber Orchestra"
ISRC GBAJY0530804
FLAGS DCP
INDEX 01 00:00:00
FILE "05. Keyboard Concerto No. 3 in D Major, BWV1054 · Adagio e piano sempre.wav" WAVE
TRACK 05 AUDIO
TITLE "Keyboard Concerto No. 3 in D Major, BWV1054 · Adagio e piano sempre"
PERFORMER "Angela Hewitt · Australian Chamber Orchestra"
ISRC GBAJY0530805
FLAGS DCP
INDEX 01 00:00:00
FILE "06. Keyboard Concerto No. 3 in D Major, BWV1054 · Allegro.wav" WAVE
TRACK 06 AUDIO
TITLE "Keyboard Concerto No. 3 in D Major, BWV1054 · Allegro"
PERFORMER "Angela Hewitt · Australian Chamber Orchestra"
ISRC GBAJY0530806
FLAGS DCP
INDEX 01 00:00:00
FILE "07. Keyboard Concerto No. 2 in E Major, BWV1053 · [first movement].wav" WAVE
TRACK 07 AUDIO
TITLE "Keyboard Concerto No. 2 in E Major, BWV1053 · [first movement]"
PERFORMER "Angela Hewitt · Australian Chamber Orchestra"
ISRC GBAJY0530807
FLAGS DCP
INDEX 01 00:00:00
FILE "08. Keyboard Concerto No. 2 in E Major, BWV1053 · Siciliano.wav" WAVE
TRACK 08 AUDIO
TITLE "Keyboard Concerto No. 2 in E Major, BWV1053 · Siciliano"
PERFORMER "Angela Hewitt · Australian Chamber Orchestra"
ISRC GBAJY0530808
FLAGS DCP
INDEX 01 00:00:00
FILE "09. Keyboard Concerto No. 2 in E Major, BWV1053 · Allegro.wav" WAVE
TRACK 09 AUDIO
TITLE "Keyboard Concerto No. 2 in E Major, BWV1053 · Allegro"
PERFORMER "Angela Hewitt · Australian Chamber Orchestra"
ISRC GBAJY0530809
FLAGS DCP
INDEX 01 00:00:00
FILE "10. Keyboard Concerto No. 5 in F Minor, BWV 1056 · Allegro.wav" WAVE
TRACK 10 AUDIO
TITLE "Keyboard Concerto No. 5 in F Minor, BWV 1056 · Allegro"
PERFORMER "Angela Hewitt · Australian Chamber Orchestra"
ISRC GBAJY0530810
FLAGS DCP
INDEX 01 00:00:00
FILE "11. Keyboard Concerto No. 5 in F Minor, BWV 1056 · Adagio.wav" WAVE
TRACK 11 AUDIO
TITLE "Keyboard Concerto No. 5 in F Minor, BWV 1056 · Adagio"
PERFORMER "Angela Hewitt · Australian Chamber Orchestra"
ISRC GBAJY0530811
FLAGS DCP
INDEX 01 00:00:00
FILE "12. Keyboard Concerto No. 5 in F Minor, BWV 1056 · Presto.wav" WAVE
TRACK 12 AUDIO
TITLE "Keyboard Concerto No. 5 in F Minor, BWV 1056 · Presto"
PERFORMER "Angela Hewitt · Australian Chamber Orchestra"
ISRC GBAJY0530812
FLAGS DCP
INDEX 01 00:00:00
FILE "13. Keyboard Concerto No. 6 in F Major, BWV1057 · [first movement].wav" WAVE
TRACK 13 AUDIO
TITLE "Keyboard Concerto No. 6 in F Major, BWV1057 · [first movement]"
PERFORMER "Angela Hewitt · Australian Chamber Orchestra"
ISRC GBAJY0530813
FLAGS DCP
INDEX 01 00:00:00
FILE "14. Keyboard Concerto No. 6 in F Major, BWV1057 · Andante.wav" WAVE
TRACK 14 AUDIO
TITLE "Keyboard Concerto No. 6 in F Major, BWV1057 · Andante"
PERFORMER "Angela Hewitt · Australian Chamber Orchestra"
ISRC GBAJY0530814
FLAGS DCP
INDEX 01 00:00:00
FILE "15. Keyboard Concerto No. 6 in F Major, BWV1057 · Allegro assai.wav" WAVE
TRACK 15 AUDIO
TITLE "Keyboard Concerto No. 6 in F Major, BWV1057 · Allegro assai"
PERFORMER "Angela Hewitt · Australian Chamber Orchestra"
ISRC GBAJY0530815
FLAGS DCP
INDEX 01 00:00:00
[teatrix.ru].t23217.torrent 
Торрент: Зарегистрирован [ 2016-03-21 00:31 ] · 06F7264932EBD75A45766F7CFBC44A86F1749517

Скачать .torrent

Скачать

16 KB

Статус: проверено
Скачан: 0 раз
Размер: 596 MB
terms.php



Быстрый ответ

Имя:

      
Для отправки сообщений необходимо включить JavaScript
Показать сообщения:    

Текущее время: 08-Дек 14:54

Часовой пояс: UTC + 3


Вы можете начинать темы
Вы можете отвечать на сообщения
Вы не можете редактировать свои сообщения
Вы не можете удалять свои сообщения
Вы не можете голосовать в опросах
Вы не можете прикреплять файлы к сообщениям
Вы можете скачивать файлы